<?xml version="1.0" standalone="no"?>
<!DOCTYPE svg PUBLIC "-//W3C//DTD SVG 1.1//EN" "http://www.w3.org/Graphics/SVG/1.1/DTD/svg11.dtd" >
<svg xmlns="http://www.w3.org/2000/svg">
<metadata></metadata>
<defs>
<font id="yanone_kaffeesatzregular" horiz-adv-x="856" >
<font-face units-per-em="2048" ascent="1638" descent="-410" />
<missing-glyph horiz-adv-x="323" />
<glyph horiz-adv-x="2048" />
<glyph horiz-adv-x="2048" />
<glyph horiz-adv-x="682" />
<glyph unicode="&#xd;" horiz-adv-x="323" />
<glyph unicode=" "  horiz-adv-x="323" />
<glyph unicode="&#x09;" horiz-adv-x="323" />
<glyph unicode="&#xa0;" horiz-adv-x="323" />
<glyph unicode="!" horiz-adv-x="399" d="M86 102q0 50 30.5 84.5t82.5 34.5q114 0 114 -119q0 -49 -31 -82.5t-83 -33.5q-60 0 -86.5 29.5t-26.5 86.5zM92 1399q0 33 38.5 40t186.5 7l-32 -932q-3 -52 -34 -65t-130 -13z" />
<glyph unicode="&#x22;" horiz-adv-x="538" d="M63 1556q0 42 7 46q13 8 65 8q60 0 90 -6q0 -87 -15.5 -241t-27.5 -163l-90 -6q-2 13 -8.5 75.5t-13.5 151t-7 135.5zM315 1556q0 44 4 46q13 8 68 8q60 0 90 -6q0 -85 -16.5 -240t-26.5 -164l-90 -6q-2 13 -8.5 75.5t-13.5 151t-7 135.5z" />
<glyph unicode="#" d="M57 389q0 102 9 118q6 13 24 13h88l10 217h-131q0 102 9 118q6 13 24 13h107l6 129q1 23 29.5 28t115.5 5l-8 -162h197l6 129q1 23 29.5 28t115.5 5l-8 -162h119q0 -101 -9 -118q-8 -13 -24 -13h-92l-12 -217h137q0 -101 -9 -118q-6 -13 -24 -13h-111l-8 -137 q-1 -23 -29.5 -28t-115.5 -5l8 170h-195l-8 -137q-1 -23 -29.5 -28t-115.5 -5l8 170h-113zM322 520h196l10 217h-194z" />
<glyph unicode="$" d="M109 76q0 18 13 64.5t30 68.5q77 -62 219 -62q190 0 190 177q0 57 -24 102.5t-88 114.5l-230 231q-110 116 -110 227q0 109 69 177.5t193 83.5v182q0 40 34.5 53.5t114.5 13.5v-247q44 -3 81.5 -9.5t60.5 -15t39.5 -17.5t23 -16.5t6.5 -13.5q0 -24 -10 -58t-31 -57 q-24 16 -80 29.5t-121 13.5q-198 0 -198 -117q0 -41 20.5 -77t67.5 -86l248 -248q61 -61 88.5 -124.5t27.5 -143.5q0 -282 -258 -328v-180q0 -39 -34 -51.5t-115 -12.5v236q-73 4 -127.5 20.5t-77 35t-22.5 34.5z" />
<glyph unicode="%" horiz-adv-x="1417" d="M92 1075q0 190 74.5 282.5t214.5 92.5q96 0 153.5 -32t88 -114.5t30.5 -226.5q0 -383 -284 -383q-58 0 -98.5 8.5t-76.5 32.5t-57 66.5t-33 110.5t-12 163zM238 47l827 1405q10 -3 25.5 -9.5t41 -25.5t25.5 -37q0 -11 -204.5 -360t-408.5 -692l-204 -344q-4 1 -11 3 t-24.5 8.5t-31 13.5t-24.5 17.5t-11 20.5zM250 1071q0 -102 15 -157.5t40 -73t68 -17.5q129 0 129 252q0 101 -14 155.5t-38.5 73.5t-68.5 19q-65 0 -98 -55.5t-33 -196.5zM762 362q0 190 75 282.5t216 92.5q95 0 152.5 -32t88.5 -114.5t31 -225.5q0 -383 -285 -383 q-74 0 -121.5 14.5t-85 54.5t-54.5 116t-17 195zM918 354q0 -102 15 -157t40 -73t69 -18q129 0 129 252q0 101 -13 155.5t-37.5 73.5t-69.5 19q-65 0 -99 -55.5t-34 -196.5z" />
<glyph unicode="&#x26;" horiz-adv-x="1028" d="M55 348q0 122 65 222t165 163q-160 279 -160 430q0 138 89 210.5t253 72.5q132 0 218.5 -29t86.5 -67q0 -30 -11.5 -65t-29.5 -56q-102 71 -246 71q-43 0 -73 -5.5t-57.5 -21t-41.5 -48.5t-14 -82q0 -104 121 -315t282 -416q17 85 17 184q0 272 -123 420q85 16 233 16 q86 0 160 -6q0 -1 1 -10.5t2 -23t1 -25.5q0 -38 -16.5 -56.5t-69.5 -17.5h-100q14 -26 19 -35.5t18 -42t18.5 -60.5t11 -76t5.5 -104q0 -174 -52 -313q114 -123 172 -149q-6 -49 -41.5 -91t-66.5 -42q-29 0 -150 131q-114 -131 -307 -131q-379 0 -379 368zM225 344 q0 -89 47 -149t152 -60q135 0 209 101q-145 176 -277 378q-131 -93 -131 -270z" />
<glyph unicode="'" horiz-adv-x="288" d="M63 1556q0 42 7 46q13 8 65 8q60 0 90 -6q0 -87 -15.5 -241t-27.5 -163l-90 -6q-2 13 -8.5 75.5t-13.5 151t-7 135.5z" />
<glyph unicode="(" horiz-adv-x="598" d="M133 655q0 140 17 269.5t43.5 226.5t60 180.5t67 139.5t64 96.5t51 59t27.5 18.5q40 0 60 -22.5t32 -82.5q-50 -67 -92 -148.5t-80.5 -190t-60 -249.5t-21.5 -297q0 -168 24.5 -326t64 -274.5t81.5 -200.5t84 -133q-12 -61 -31.5 -91.5t-58.5 -30.5q-9 0 -30 19.5t-52 62 t-64.5 102.5t-66.5 149t-59.5 192.5t-43 242t-16.5 288.5z" />
<glyph unicode=")" horiz-adv-x="598" d="M43 -279q46 60 87.5 141.5t80.5 196t62.5 269.5t23.5 327q0 289 -72 521t-182 364q14 60 33 82.5t59 22.5q7 0 27.5 -17.5t51 -57t64 -95t67 -138.5t60 -180t43.5 -228t17 -274q0 -195 -31 -374t-75 -298.5t-92.5 -209.5t-84 -132t-49.5 -42q-38 0 -58.5 31t-31.5 91z " />
<glyph unicode="*" horiz-adv-x="962" d="M33 1030q-1 60 28 98.5t62 38.5q12 0 18 -4l267 -166q6 -59 -33 -59q-11 0 -17 2zM135 614l248 252q17 17 31 17q22 0 45 -33l-180 -320q-15 -18 -33 -18q-27 0 -59 32.5t-52 69.5zM408 1366q-3 23 13.5 33t47.5 10q52 0 100 -23l-41 -323q-6 -37 -39 -37q-15 0 -36 6z M504 848q0 23 51 41l236 -277q10 -13 10 -22q0 -29 -43.5 -55t-87.5 -33l-160 325q-6 12 -6 21zM551 981q0 19 27 33l305 164q21 -18 34 -49.5t13 -61.5q0 -47 -31 -55l-326 -80q-22 27 -22 49z" />
<glyph unicode="+" d="M70 506q0 88 5 115.5t29 27.5h252v254q0 23 29 28t117 5v-287h284q0 -88 -4.5 -115.5t-27.5 -27.5h-252v-254q0 -23 -29 -28t-117 -5v287h-286z" />
<glyph unicode="," horiz-adv-x="374" d="M78 -164q33 55 44.5 91t14.5 83q-49 32 -49 101q0 46 29.5 76t75.5 30q110 0 110 -121q0 -53 -19.5 -111t-46.5 -99.5t-53.5 -69t-40.5 -27.5q-54 0 -65 47z" />
<glyph unicode="-" horiz-adv-x="569" d="M76 506q0 87 5.5 115t29.5 28h383q0 -87 -5 -115t-28 -28h-385z" />
<glyph unicode="." horiz-adv-x="374" d="M76 104q0 48 31 82.5t83 34.5q113 0 113 -117q0 -51 -30.5 -83.5t-82.5 -32.5q-62 0 -88 29t-26 87z" />
<glyph unicode="/" horiz-adv-x="684" d="M20 -41l461 1563q5 17 10 24.5t25.5 13t51 6.5t96.5 1l-461 -1567q-4 -16 -9 -23t-27 -12t-50.5 -5.5t-96.5 -0.5z" />
<glyph unicode="0" d="M59 606q0 311 89.5 467t283.5 156t279.5 -140t85.5 -434q0 -172 -18.5 -293.5t-62 -208.5t-116 -129t-178.5 -42q-84 0 -146 26t-103.5 75.5t-67 127t-36 173t-10.5 222.5zM238 594q0 -255 41.5 -359t146.5 -104t152 124.5t47 401.5q0 219 -41 322.5t-144 103.5 q-58 0 -98 -32.5t-62.5 -98.5t-32 -152t-9.5 -206z" />
<glyph unicode="1" d="M57 115q0 41 297 41l23 903q-30 -1 -88.5 -10t-102.5 -18l-43 -9q-24 40 -24 108q0 20 164 59.5t223 39.5q34 0 47 -10l-27 -1063h152l119 6q0 -96 -5 -129t-28 -33h-703q-4 66 -4 115z" />
<glyph unicode="2" d="M59 51q0 40 9.5 64t42.5 82q76 129 231 307q52 62 75.5 91t61.5 81.5t55.5 87t31.5 80t14 86.5q0 141 -158 141q-82 0 -166 -21t-135 -51q-21 50 -21 121q0 39 110 74t253 35q169 0 236 -68.5t67 -210.5q0 -46 -8.5 -89.5t-31 -90t-40.5 -80t-57.5 -85.5t-61 -78.5 t-71.5 -86.5q-140 -163 -217 -284h276q48 0 108.5 3.5t96.5 6.5l37 4q0 -101 -6 -135.5t-29 -34.5h-694q-9 24 -9 51z" />
<glyph unicode="3" d="M88 1118q0 43 99 77t255 34q150 0 217.5 -67.5t67.5 -174.5q0 -211 -225 -371q122 -11 197 -85.5t75 -219.5q0 -247 -128.5 -381.5t-334.5 -134.5q-108 0 -164.5 29t-56.5 72q0 21 3 41t5.5 30.5t8 28.5t6.5 22q71 -65 200 -65q132 0 207.5 98.5t75.5 255.5 q0 63 -26.5 107t-74.5 66t-102 31t-123 9l-4 105q130 63 201.5 145t71.5 168q0 133 -148 133q-162 0 -282 -74q-21 43 -21 121z" />
<glyph unicode="4" d="M57 414q0 51 72.5 216.5t177 342t178.5 239.5q37 29 74 29q57 0 88 -22v-797l152 6q8 -14 8 -49q0 -111 -55 -111h-105v-215q0 -40 -20.5 -46.5t-145.5 -6.5v268h-370q-54 54 -54 146zM201 422h280l25 592q-80 -92 -176.5 -275t-128.5 -317z" />
<glyph unicode="5" d="M70 -121q0 82 18 135q71 -65 201 -65q81 0 143 35t98 94.5t54 132t18 154.5q0 86 -22 144t-66 89t-98.5 43t-130.5 12q-79 0 -199 -26l59 602h627q0 -95 -14.5 -121.5t-71.5 -26.5l-399 9l-33 -310q77 11 131 11q393 0 393 -392q0 -284 -117.5 -444t-357.5 -160 q-76 0 -132 15.5t-78.5 34t-22.5 34.5z" />
<glyph unicode="6" d="M63 631q0 807 467 807q222 0 222 -70q0 -62 -17 -117q-88 31 -192 31q-301 0 -320 -530q91 147 281 147q138 0 217.5 -96.5t79.5 -300.5q0 -518 -387 -518q-67 0 -119 16t-88.5 42.5t-62.5 72.5t-42 95t-24.5 120.5t-11.5 139.5t-3 161zM221 582q-4 -236 44.5 -343.5 t154.5 -107.5q103 0 161 94.5t58 241.5q0 136 -47 208.5t-135 72.5q-135 0 -236 -154v-12z" />
<glyph unicode="7" d="M92 1229h737q-209 -403 -333.5 -742t-161.5 -667q-99 0 -134.5 8.5t-35.5 36.5q40 306 172.5 659.5t265.5 562.5q-152 -8 -465 -8q-45 0 -45 150z" />
<glyph unicode="8" d="M66 375q0 128 64.5 230.5t168.5 164.5q-92 63 -133 109q-86 80 -86 215q0 170 99.5 261t250.5 91q363 0 363 -332q0 -64 -18 -119.5t-52 -99t-69.5 -75.5t-82.5 -64q83 -66 111 -94q121 -124 121 -289q0 -170 -93 -279.5t-264 -109.5q-100 0 -174.5 30.5t-118.5 85 t-65.5 123.5t-21.5 152zM219 385q0 -113 58 -178.5t159 -65.5q94 0 149.5 63.5t55.5 170.5q0 77 -24 123.5t-68 87.5q-45 45 -119 96q-95 -49 -153 -125t-58 -172zM244 1104q0 -101 82 -168q31 -31 123 -94q192 122 192 266q0 91 -55.5 136.5t-134.5 45.5q-91 0 -149 -46.5 t-58 -139.5z" />
<glyph unicode="9" d="M57 733q0 261 97 387.5t290 126.5q74 0 127.5 -13.5t93 -47t64 -79.5t39.5 -122t21 -163.5t8 -213.5q-3 -421 -126.5 -621t-387.5 -200q-81 0 -132 16.5t-51 51.5q0 56 15 110q67 -20 149 -20q77 0 137 25.5t101 70t69 111.5t43 143.5t21 171.5q-49 -73 -115.5 -109 t-163.5 -36q-133 0 -216 108t-83 303zM219 754q0 -135 50 -208t137 -73q132 0 233 152v10q0 82 -3 141t-10.5 114.5t-21 92t-34.5 64.5t-52 40.5t-72 12.5q-108 0 -167.5 -87.5t-59.5 -258.5z" />
<glyph unicode=":" horiz-adv-x="374" d="M78 104q0 48 30 82.5t82 34.5q115 0 115 -117q0 -51 -31 -83.5t-84 -32.5q-61 0 -86.5 29t-25.5 87zM78 791q0 48 30 82t82 34q115 0 115 -116q0 -51 -31 -84t-84 -33q-61 0 -86.5 29.5t-25.5 87.5z" />
<glyph unicode=";" horiz-adv-x="374" d="M70 -164q32 54 43 89t16 85q-49 32 -49 101q0 46 29 76t75 30q111 0 111 -121q0 -53 -19.5 -111t-46.5 -99.5t-53.5 -69t-40.5 -27.5q-54 0 -65 47zM74 791q0 48 30 82t82 34q115 0 115 -116q0 -51 -31 -84t-84 -33q-61 0 -86.5 29.5t-25.5 87.5z" />
<glyph unicode="&#x3c;" horiz-adv-x="819" d="M80 528q0 64 53 90l541 263q57 -51 57 -109q0 -37 -29 -49l-407 -201l442 -196q-1 -52 -24 -90.5t-49 -38.5q-12 0 -56 14l-502 221q-26 47 -26 96z" />
<glyph unicode="=" d="M70 315q0 88 5 116t29 28h682q0 -109 -8 -128q-9 -15 -24 -16h-684zM70 694v8q0 84 5 111t29 27h682q0 -110 -9 -130q-8 -15 -23 -16h-684z" />
<glyph unicode="&#x3e;" horiz-adv-x="819" d="M88 733q3 51 26.5 89t49.5 38q20 0 55 -14l500 -221q26 -42 26 -97q0 -64 -53 -90l-540 -264q-54 54 -58 111q0 37 29 51l409 199z" />
<glyph unicode="?" horiz-adv-x="604" d="M39 1366q0 36 81 62t175 26q133 0 209 -73t76 -214q0 -63 -12 -118.5t-38.5 -105.5t-46 -79.5t-55.5 -77.5q-57 -72 -76 -110q-24 -41 -24 -96q0 -24 10 -82q7 -47 2 -54q-15 -20 -92 -20q-42 0 -58 2q-30 61 -30 145q0 79 39 148q28 53 90 145q41 59 59 88t36.5 79 t18.5 99q0 158 -167 158q-99 0 -173 -53q-24 74 -24 131zM154 104q0 48 30 82.5t82 34.5q115 0 115 -117q0 -51 -31 -83.5t-84 -32.5q-61 0 -86.5 29t-25.5 87z" />
<glyph unicode="@" horiz-adv-x="1511" d="M96 541q0 223 50.5 389.5t145.5 268t223.5 151t291.5 49.5q153 0 264.5 -35.5t190.5 -113t118 -205.5t39 -310q0 -139 -12.5 -251.5t-32 -187t-48.5 -130t-57.5 -86t-62.5 -48.5t-60 -23t-54 -5q-73 0 -127 47q-65 -49 -230 -49q-46 0 -80.5 6t-68 25.5t-54.5 52.5 t-34 89t-13 134q0 342 260 342q78 0 121 -22q4 80 4 133q0 62 -31 86t-94 24q-116 0 -204 -49q-17 38 -17 95q0 21 19 40q80 54 258 54q118 0 173 -53t52 -185l-10 -412q-3 -149 -10 -202q37 -13 67 -13q31 0 60 28.5t56 88t43.5 170.5t16.5 258q0 313 -96 436t-348 123 q-137 0 -234 -36t-168 -119.5t-105 -226.5t-34 -351q0 -132 11 -236t30.5 -182t52 -135t71 -94.5t91 -59.5t108.5 -31t128 -9q260 0 477 90q43 -64 43 -119q0 -30 -59.5 -60t-179 -50.5t-269.5 -20.5q-69 0 -123 4t-113.5 16.5t-105.5 34t-93 57.5t-81 85.5t-65 119.5 t-50 158t-30 202.5t-11 252.5zM643 303q0 -102 26.5 -139t84.5 -37q101 0 104 106l8 295q-49 7 -71 7q-74 0 -113 -51t-39 -181z" />
<glyph unicode="A" horiz-adv-x="894" d="M10 2l367 1409q6 29 61 29q48 0 78 -6l367 -1403q1 -3 1 -6q0 -14 -12 -21q-14 -8 -61 -8q-55 0 -98 4l-86 365h-357l-80 -336q-5 -19 -18 -26t-59 -7q-45 0 -103 6zM305 514h285l-70 295q-59 243 -71 395q-22 -179 -74 -395z" />
<glyph unicode="B" horiz-adv-x="772" d="M90 0v1395q0 20 11 29.5t42 9.5h203q344 0 344 -316q0 -81 -18 -145t-47 -102t-62 -59t-67 -26q32 -2 61 -9t63.5 -27.5t59 -51.5t41 -85.5t16.5 -125.5q0 -126 -31 -221.5t-85.5 -152.5t-123 -85t-149.5 -28h-258zM256 145h94q84 0 138.5 81.5t54.5 246.5q0 62 -10 106 t-25 68.5t-41.5 38t-51.5 17.5t-63 4h-96v-562zM256 848h102q70 0 111 59t41 178q0 203 -152 203h-102v-440z" />
<glyph unicode="C" horiz-adv-x="698" d="M61 657q0 146 13 264.5t35 200t54 142.5t66 97t76.5 57.5t79.5 28.5t80 7q103 0 147.5 -33.5t44.5 -79.5q0 -54 -26 -100q-64 51 -133 51q-36 0 -65 -9t-60.5 -32t-55 -68.5t-42.5 -112.5t-29 -169.5t-10 -234.5q0 -152 14.5 -254t43 -155.5t63 -74t83.5 -20.5 q57 0 109 19t82 46q24 -54 24 -100q0 -61 -71 -104t-183 -43q-46 0 -81 6t-71.5 24t-63.5 48.5t-51.5 81.5t-39.5 121.5t-24 170t-9 225.5z" />
<glyph unicode="D" horiz-adv-x="794" d="M90 0v1395q0 20 12 29.5t43 9.5h201q104 0 175.5 -30.5t123 -104t76 -198.5t24.5 -310q0 -178 -17.5 -313t-50 -225.5t-82.5 -147t-110.5 -81t-138.5 -24.5h-256zM256 158h94q29 0 52.5 9t48.5 32.5t43.5 70t33.5 116t23 176.5t8 245q0 186 -24 291.5t-68 144.5t-117 39 h-94v-1124z" />
<glyph unicode="E" horiz-adv-x="655" d="M92 0v1401q0 4 1 9.5t9 14.5t23 9h491v-12q0 -96 -4 -117t-26 -21h-330v-428h309q0 -102 -4 -126.5t-26 -24.5h-279v-555h352q0 -107 -4.5 -128.5t-28.5 -21.5h-483z" />
<glyph unicode="F" horiz-adv-x="641" d="M92 0v1401q0 4 1 9.5t9 14.5t23 9h491q0 -103 -3.5 -122.5t-26.5 -19.5h-330v-436h309q0 -102 -4 -126.5t-26 -24.5h-279v-672q0 -33 -31 -33h-133z" />
<glyph unicode="G" horiz-adv-x="790" d="M61 684q0 189 20.5 326t56 222t93 135t121.5 68.5t150 18.5q97 0 158 -31t61 -73q0 -48 -23 -107q-63 49 -163 49q-108 0 -171 -53t-94.5 -183.5t-31.5 -359.5q0 -144 10 -245.5t26.5 -161.5t44.5 -93.5t58 -44t74 -10.5q49 0 80.5 17t41.5 35v509h-153v105q0 33 39 33 h268v-768q-111 -92 -281 -92q-86 0 -145 18t-107.5 64t-76 126t-42 201.5t-14.5 294.5z" />
<glyph unicode="H" horiz-adv-x="839" d="M90 0v1401v1q0 24 20.5 28t145.5 4v-584h328v551v1q0 24 20.5 28t143.5 4v-1401v-1q0 -24 -20.5 -28t-143.5 -4v694h-328v-661v-1q0 -24 -20.5 -28t-145.5 -4z" />
<glyph unicode="I" horiz-adv-x="346" d="M90 0v1358q0 57 21.5 66.5t146.5 9.5v-1401q0 -25 -22 -29t-146 -4z" />
<glyph unicode="J" horiz-adv-x="614" d="M29 102q0 40 24 95q72 -68 170 -68q84 0 108.5 55.5t24.5 190.5v983q0 57 21 66.5t147 9.5v-1096q0 -64 -7.5 -115t-26.5 -97.5t-50 -77t-80.5 -48.5t-115.5 -18q-115 0 -165 34.5t-50 85.5z" />
<glyph unicode="K" horiz-adv-x="796" d="M86 0v1401q0 25 21 29t147 4v-617l328 606q63 13 104 13q74 0 74 -31q0 -7 -6 -19l-332 -571q247 -188 330 -778q2 -24 -12 -32.5t-56 -8.5q-54 0 -115 6q-48 261 -99 411.5t-134 237.5q-29 34 -82 56v-674q0 -25 -21 -29t-147 -4z" />
<glyph unicode="L" horiz-adv-x="643" d="M90 0v1386q0 35 21.5 41.5t144.5 6.5v-1278h352v-123q0 -19 -8.5 -26t-24.5 -7h-485z" />
<glyph unicode="M" horiz-adv-x="1001" d="M90 0v1401q0 15 5 22.5t11 9t17 1.5h119l196 -623l66 -227q36 145 59 221l182 596q4 12 6 17t9 10.5t18 5.5h133v-1401q0 -25 -21 -29t-147 -4l7 502q4 182 36 610q-94 -356 -133 -467l-108 -315q-6 -17 -23 -17h-71l-107 332q-30 93 -131 463l-2 -2q35 -381 41 -596 v-477q0 -24 -22 -28.5t-140 -4.5z" />
<glyph unicode="N" horiz-adv-x="909" d="M90 0v1401q0 33 33 33h125l231 -553q31 -78 197 -580v4q-9 79 -15 292.5t-6 320.5v483q0 25 21.5 29t144.5 4v-1401q0 -33 -35 -33h-122l-236 563q-59 154 -195 582q8 -88 14.5 -307.5t6.5 -307.5v-497q0 -25 -21 -29t-143 -4z" />
<glyph unicode="O" horiz-adv-x="878" d="M61 725q0 270 44 431.5t128.5 229.5t221.5 68q135 0 212 -66t113.5 -222.5t36.5 -434.5q0 -281 -41.5 -446t-124 -235t-219.5 -70q-138 0 -216 63t-116.5 225.5t-38.5 456.5zM248 684q0 -293 41 -413.5t149 -120.5q112 0 156.5 130.5t44.5 446.5q0 314 -39.5 435.5 t-148.5 121.5q-110 0 -156.5 -135t-46.5 -465z" />
<glyph unicode="P" horiz-adv-x="739" d="M90 0v1401q0 18 7 25.5t26 7.5h203q195 0 285.5 -96.5t90.5 -307.5q0 -123 -29.5 -212t-82 -139.5t-117.5 -73.5t-145 -23h-74v-549q0 -25 -21 -29t-143 -4zM254 735h90q90 0 133 73t43 241q0 116 -38 177.5t-126 61.5h-102v-553z" />
<glyph unicode="Q" horiz-adv-x="878" d="M61 725q0 270 44 431.5t128.5 229.5t221.5 68q135 0 212 -66t113.5 -222.5t36.5 -434.5q0 -334 -57 -505t-182 -222q13 -81 37.5 -114t70.5 -33q77 0 129 34q25 -39 25 -90q0 -31 -33.5 -50.5t-71.5 -25.5t-80 -6q-104 0 -167.5 62.5t-98.5 200.5q-120 8 -189.5 77 t-104 228.5t-34.5 437.5zM248 684q0 -293 41 -413.5t149 -120.5q112 0 156.5 130.5t44.5 446.5q0 314 -39.5 435.5t-148.5 121.5q-110 0 -156.5 -135t-46.5 -465z" />
<glyph unicode="R" horiz-adv-x="761" d="M90 0v1401q0 4 1 9.5t9 14.5t23 9h203q195 0 285.5 -96.5t90.5 -307.5q0 -302 -178 -401q41 -54 76 -122t71.5 -196t45.5 -274q0 -25 -14 -33t-70 -8q-22 0 -96 4q-8 122 -28.5 226t-47 173.5t-49 112t-45.5 72.5l-39 -2h-74v-549q0 -25 -21 -29t-143 -4zM254 735h90 q90 0 133 70.5t43 230.5q0 125 -37.5 188.5t-126.5 63.5h-102v-553z" />
<glyph unicode="S" horiz-adv-x="733" d="M51 100q0 64 43 119q79 -72 211 -72q203 0 203 209q0 73 -26.5 132.5t-94.5 138.5l-205 239q-70 84 -99.5 152.5t-29.5 142.5q0 132 93 212.5t260 80.5q138 0 203 -28t65 -74q0 -51 -41 -95q-22 19 -78.5 34.5t-122.5 15.5q-93 0 -147 -37.5t-54 -104.5q0 -53 22 -95.5 t73 -106.5l223 -252q78 -93 107.5 -170.5t29.5 -175.5q0 -82 -18.5 -149t-59.5 -121.5t-113.5 -84.5t-172.5 -30q-129 0 -200 37t-71 83z" />
<glyph unicode="T" horiz-adv-x="763" d="M16 1278v123q0 33 35 33h697v-121q0 -20 -8 -27.5t-27 -7.5h-252v-1245q0 -25 -21.5 -29t-144.5 -4v1278h-279z" />
<glyph unicode="U" horiz-adv-x="894" d="M90 420v979q0 26 21 30.5t149 4.5v-1020q0 -69 7 -115t27 -86.5t61 -60t104 -19.5q112 0 180 35v1231q0 26 21.5 30.5t146.5 4.5v-1381q-43 -28 -140 -50.5t-208 -22.5q-96 0 -165 24t-108 61.5t-61 98t-28.5 118t-6.5 138.5z" />
<glyph unicode="V" horiz-adv-x="860" d="M10 1411q0 12 8 17.5t31 5.5h135l172 -795q31 -162 70 -422q7 -47 12 -76q35 284 74 498l154 745q5 28 13 39t30 11h143l-315 -1440q-60 -8 -140 -8q-68 0 -98 118q-36 148 -107 468t-124 566l-54 246q-4 20 -4 27z" />
<glyph unicode="W" horiz-adv-x="1339" d="M10 1407q0 27 39 27h135l150 -797q31 -185 61 -457h11q10 210 53 457l127 678q5 28 12.5 38.5t30.5 10.5h71h45l146 -727q27 -135 53 -379q1 -12 4 -38t4 -40h13q21 273 51 457l133 747q3 27 11 38.5t30 11.5h141l-270 -1440q-95 -10 -137 -10q-65 0 -88 116l-107 465 q-26 140 -63 469q-31 -270 -60 -467l-112 -573q-68 -8 -152 -8q-57 0 -84 125q-31 152 -92 470t-106 561l-46 242q-4 16 -4 23z" />
<glyph unicode="X" horiz-adv-x="868" d="M18 0l314 741l-258 664q-6 18 7 22q19 7 187 7l84 -234q50 -134 101 -307q47 160 102 307l80 207q5 17 16 21q17 6 162 6l-264 -680l295 -727q2 -4 2 -13q0 -14 -21 -14h-180l-110 276q-60 154 -111 306q-58 -170 -115 -306l-110 -256q-13 -20 -37 -20h-144z" />
<glyph unicode="Y" horiz-adv-x="745" d="M12 1407q-2 5 -2 9q0 9 8 12q17 6 181 6l82 -281q30 -97 63.5 -240.5t38.5 -189.5q5 45 39.5 189.5t64.5 240.5l72 250q6 23 28.5 27t149.5 4l-276 -844v-557v-1q0 -24 -20.5 -28t-145.5 -4v582z" />
<glyph unicode="Z" horiz-adv-x="788" d="M39 63q0 38 16 74l492 1149h-383q-64 0 -88 -6v119q0 16 9 25.5t26 9.5h610q16 -22 16 -54q0 -35 -16 -75l-500 -1158h397q81 0 121 17v-131q0 -33 -32 -33h-641q-27 23 -27 63z" />
<glyph unicode="[" horiz-adv-x="790" d="M250 -408v2038q0 24 6 33t31.5 13.5t89.5 4.5h395q0 -103 -8 -127t-47 -24h-301v-1782h354q0 -79 -5 -110t-14 -38.5t-36 -7.5h-465z" />
<glyph unicode="\" horiz-adv-x="673" d="M20 1540q0 18 30 22.5t136 4.5l463 -1587q4 -12 4 -17q0 -18 -28 -21t-140 -3l-460 1583q-5 15 -5 18z" />
<glyph unicode="]" horiz-adv-x="790" d="M18 -410q0 102 8.5 127t47.5 25h301v1786h-355q0 78 5 109.5t14.5 38.5t36.5 7h465v-2041q0 -25 -6 -33.5t-32 -13.5t-89 -5h-396z" />
<glyph unicode="^" horiz-adv-x="880" d="M98 510l353 305l299 -262q28 -22 28 -53q0 -29 -23 -51t-57 -27l-264 180l-209 -156q-34 -20 -51 -20q-33 0 -53.5 25.5t-22.5 58.5z" />
<glyph unicode="_" horiz-adv-x="772" d="M29 -223q0 109 8 129q7 16 24 16h684v-8q0 -82 -5 -109.5t-29 -27.5h-682z" />
<glyph unicode="`" horiz-adv-x="550" d="M100 1341q7 44 28 84.5t48 40.5q8 0 56 -36.5t112.5 -95.5t106.5 -109q-1 -4 -3 -10t-8.5 -22t-13.5 -28t-17.5 -22t-21.5 -10q-56 31 -159.5 105.5t-127.5 102.5z" />
<glyph unicode="a" horiz-adv-x="724" d="M59 291q0 69 10.5 123.5t30.5 90.5t44.5 60.5t57 37.5t63.5 18.5t69 5.5q94 0 149 -27v162q0 70 -31 96.5t-96 26.5q-75 0 -150 -13.5t-122 -33.5q-23 45 -23 96q0 41 23 55q30 20 118 37.5t195 17.5q133 0 192.5 -56.5t59.5 -192.5v-109q0 -450 -12 -637 q-112 -69 -295 -69q-49 0 -85.5 5.5t-76 24.5t-64.5 52t-41 91t-16 138zM231 295q0 -106 34 -141t104 -35q32 0 62.5 10t45.5 23q6 70 6 331q-40 21 -96 21q-35 0 -60.5 -8t-48.5 -29t-35 -64t-12 -108z" />
<glyph unicode="b" horiz-adv-x="788" d="M98 41v1389q0 54 27.5 64.5t136.5 10.5v-532q91 71 219 71t190 -92t62 -311q0 -170 -26 -295.5t-64 -194t-94.5 -109t-105 -51.5t-107.5 -11q-164 0 -238 61zM262 154q33 -29 96 -29q26 0 49 9t50 40t46.5 81t32.5 140.5t13 210.5q0 160 -34.5 224.5t-108.5 64.5 q-87 0 -144 -57v-684z" />
<glyph unicode="c" horiz-adv-x="641" d="M63 489q0 102 12 185t31.5 140t48.5 99.5t59.5 67t69.5 39.5t72.5 19.5t73.5 4.5q73 0 122.5 -26.5t49.5 -65.5q0 -47 -18 -92q-72 39 -146 39q-32 0 -57.5 -7t-54.5 -32.5t-48 -68.5t-32 -120.5t-13 -183.5q0 -142 21 -222t59.5 -109t104.5 -29q98 0 164 47 q16 -59 16 -90q0 -42 -65 -73t-164 -31q-63 0 -108 11.5t-84.5 43.5t-63 88t-37 147t-13.5 219z" />
<glyph unicode="d" horiz-adv-x="780" d="M63 475q0 289 87 429t227 140q95 0 147 -40v426q0 54 28 64.5t138 10.5v-1464q-129 -61 -295 -61q-60 0 -103.5 8.5t-89.5 38t-74 82t-46.5 145t-18.5 221.5zM246 494q0 -91 7 -156.5t19.5 -106t32.5 -64t42.5 -32t53.5 -8.5q79 0 123 31v716q-36 27 -94 27 q-184 0 -184 -407z" />
<glyph unicode="e" horiz-adv-x="739" d="M61 459q0 148 21 257t54 170.5t83 98.5t97 48t108 11q260 0 260 -327q0 -164 -22 -266q-165 -33 -431 -33q6 -160 50.5 -219.5t142.5 -59.5q120 0 233 66q15 -49 15 -113q0 -47 -83.5 -79.5t-199.5 -32.5q-61 0 -107.5 11t-89.5 42.5t-70.5 83.5t-44 138.5t-16.5 203.5z M231 551q29 -1 56 -1q146 0 227 23q10 46 10 123q-2 114 -26.5 158.5t-91.5 44.5q-35 0 -62.5 -15.5t-52 -53t-40 -108t-20.5 -171.5z" />
<glyph unicode="f" horiz-adv-x="520" d="M27 885q0 99 5.5 119t35.5 20h100v125q0 91 21 158.5t53.5 106t80 61.5t91 30.5t96.5 7.5q92 0 141 -22t49 -61q0 -48 -18 -91q-61 25 -145 25q-36 0 -62.5 -4t-55 -16.5t-46.5 -34t-29.5 -59t-11.5 -89.5v-137h184q0 -98 -5 -118.5t-30 -20.5h-149v-852q0 -5 -1.5 -11 t-10 -14t-23.5 -8h-129v885h-141z" />
<glyph unicode="g" horiz-adv-x="806" d="M47 -180q0 71 43 136t113 112q-125 37 -125 108q0 87 129 189q-127 80 -127 305q0 195 91 284.5t251 89.5q51 0 98 -16h248q16 -28 16 -78q0 -63 -57 -63q-29 0 -74 10q78 -75 78 -223q0 -359 -332 -359q-49 0 -92 9q-55 -55 -55 -91q0 -21 43 -32.5t140 -24.5 q11 -1 16 -2q7 -1 22.5 -3t22.5 -3q135 -21 203.5 -73t68.5 -165q0 -142 -100 -237.5t-293 -95.5q-328 0 -328 223zM217 -141q0 -55 36.5 -83t135.5 -28q102 0 156.5 49t54.5 111q0 68 -48 95t-183 36l-39 4q-49 -36 -81 -85.5t-32 -98.5zM254 674q0 -119 32 -175.5 t124 -56.5q80 0 117.5 67.5t37.5 203.5q0 112 -37 161.5t-112 49.5q-73 0 -117.5 -60.5t-44.5 -189.5z" />
<glyph unicode="h" horiz-adv-x="778" d="M92 0v1430q0 54 27.5 64.5t136.5 10.5v-540q90 79 231 79q126 0 169.5 -64.5t43.5 -205.5v-741q0 -24 -23 -28.5t-145 -4.5v729q0 78 -25 120t-95 42q-90 0 -156 -55v-803q0 -25 -20.5 -29t-143.5 -4z" />
<glyph unicode="i" horiz-adv-x="358" d="M90 1290q0 59 24 93t70 34q47 0 65.5 -26t18.5 -88q0 -136 -94 -136q-84 0 -84 123zM96 0v948q0 54 29 65t137 11v-991q0 -25 -21 -29t-145 -4z" />
<glyph unicode="j" horiz-adv-x="376" d="M-211 -293q0 52 25 84q77 -41 174 -41q76 0 99.5 44t23.5 157v997q0 54 28 65t135 11v-1098q0 -73 -11 -128t-39 -102t-82.5 -72t-133.5 -25q-219 0 -219 108zM100 1294q2 58 25.5 90.5t69.5 32.5q47 0 65.5 -27t18.5 -92q-2 -62 -26 -96.5t-69 -34.5q-42 0 -63 29 t-21 98z" />
<glyph unicode="k" horiz-adv-x="770" d="M94 0v1430q0 54 28.5 64.5t137.5 10.5v-555q53 43 122.5 68.5t135.5 25.5q174 0 174 -176q0 -185 -172 -317q79 -35 135.5 -123.5t69.5 -222.5q2 -20 2 -68q0 -49 -6 -104q-3 -25 -26 -29t-160 -4q8 63 8 129q0 55 -11 123q-16 105 -58.5 159t-96.5 54q-17 0 -25 -2 q-16 -4 -39 -13.5t-38 -17.5l-15 -8v-391v-2q0 -23 -20.5 -27t-145.5 -4zM260 543q250 100 250 270q0 82 -76 82q-95 0 -174 -98v-254z" />
<glyph unicode="l" horiz-adv-x="354" d="M94 0v1430q0 54 28.5 64.5t137.5 10.5v-1472q0 -25 -21 -29t-145 -4z" />
<glyph unicode="m" horiz-adv-x="1155" d="M94 0v977q147 67 309 67q127 0 187 -63q52 29 120 46t130 17q75 0 122 -18t70.5 -58.5t31 -87.5t7.5 -124v-723q0 -24 -22.5 -28.5t-143.5 -4.5v758q0 79 -20 110t-80 31q-76 0 -139 -39v-250v-4v-573q0 -25 -20.5 -29t-143.5 -4v762q0 82 -17.5 110.5t-85.5 28.5 q-75 0 -139 -37v-831q0 -24 -22 -28.5t-144 -4.5z" />
<glyph unicode="n" horiz-adv-x="784" d="M92 0v975q64 28 156 48.5t170 20.5q160 0 223.5 -61.5t63.5 -212.5v-737q0 -25 -22.5 -29t-147.5 -4v721q0 102 -24.5 141t-98.5 39q-90 0 -154 -37v-831q0 -25 -22 -29t-144 -4z" />
<glyph unicode="o" horiz-adv-x="770" d="M55 512q0 532 342 532q84 0 140.5 -24t98 -83t60.5 -162.5t19 -258.5q0 -278 -85 -407t-253 -129q-68 0 -114.5 11t-88.5 43.5t-66.5 91t-38.5 154t-14 232.5zM236 508q0 -124 9 -203t29 -119t44 -53.5t63 -13.5q36 0 62.5 17.5t48 60.5t32.5 123t11 196q0 160 -17 246.5 t-46 114.5t-81 28q-50 0 -82 -31.5t-52.5 -121.5t-20.5 -244z" />
<glyph unicode="p" horiz-adv-x="782" d="M94 -332v1295q128 81 299 81q80 0 138.5 -20t104 -66.5t68.5 -131.5t23 -208q0 -115 -10 -208.5t-26 -159t-40.5 -114.5t-50 -78.5t-57.5 -47.5t-60.5 -24t-60.5 -6q-105 0 -162 57v-428q-40 -12 -86 -12q-44 0 -62 14.5t-18 56.5zM260 195q42 -68 111 -68q174 0 174 473 q0 120 -19 187t-52 90.5t-89 23.5q-70 0 -125 -39v-667z" />
<glyph unicode="q" horiz-adv-x="792" d="M61 446q0 164 32.5 283t91.5 186t132 98t164 31q130 0 219 -63v-1315q0 -47 -17 -58.5t-81 -13.5q-32 0 -67 7v469q-62 -90 -197 -90q-43 0 -78.5 9.5t-73.5 39.5t-64.5 79.5t-43.5 135.5t-17 202zM248 451q0 -82 9 -142.5t23 -95t35 -55t40.5 -27t43.5 -6.5 q43 0 79.5 26.5t56.5 77.5v643q-36 29 -95 29q-63 0 -104 -41.5t-64.5 -143t-23.5 -265.5z" />
<glyph unicode="r" horiz-adv-x="538" d="M92 0v952q132 92 279 92q143 0 143 -86q0 -51 -18 -96q-45 25 -99 25q-79 0 -137 -47v-807q0 -25 -21.5 -29t-146.5 -4z" />
<glyph unicode="s" horiz-adv-x="708" d="M61 82q0 49 31 96q83 -49 203 -49q80 0 124 32t44 93q0 90 -82 162l-199 170q-119 96 -119 217q0 111 85 176t251 65q74 0 127.5 -11.5t79.5 -30.5t37.5 -36.5t11.5 -35.5q0 -42 -34 -84q-89 55 -203 55q-74 0 -118 -26.5t-44 -73.5q0 -31 16.5 -59t65.5 -68l190 -154 q68 -65 95.5 -122.5t27.5 -133.5q0 -135 -91 -209.5t-249 -74.5q-113 0 -181.5 26.5t-68.5 75.5z" />
<glyph unicode="t" horiz-adv-x="598" d="M39 883q0 97 5.5 119t29.5 22h104v311q0 41 28.5 49.5t135.5 8.5v-369h213q0 -98 -5 -119.5t-30 -21.5h-178v-598q0 -41 1.5 -64t8.5 -49.5t23 -38.5t43 -12q48 0 119 31q12 -40 12 -82q0 -90 -176 -90q-51 0 -87 15t-57 39t-32.5 65t-15 83t-3.5 103v598h-139z" />
<glyph unicode="u" horiz-adv-x="796" d="M92 319v672v1q0 24 21 28t149 4v-719q0 -103 27.5 -142.5t111.5 -39.5t138 39v829q0 25 21.5 29t144.5 4v-971q-136 -73 -308 -73q-91 0 -150.5 20t-93.5 64.5t-47.5 104.5t-13.5 150z" />
<glyph unicode="v" horiz-adv-x="704" d="M35 995q0 21 30 25t148 4l66 -330q20 -95 40.5 -224.5t30.5 -211.5l10 -82h5q34 305 77 520l56 291q4 28 26.5 32.5t147.5 4.5l-236 -1030q-31 -6 -117 -6q-27 0 -43 25.5t-28 74.5l-209 885q-4 20 -4 22z" />
<glyph unicode="w" horiz-adv-x="1107" d="M33 989q-1 4 -1 7q0 20 22 24q26 4 157 4l63 -334q18 -102 36 -227t27 -199l9 -74h12q34 243 58 379l65 392q3 22 12.5 28t41.5 6h26h82l80 -430q16 -69 31.5 -163t23.5 -153l8 -59h11q21 249 65 500l51 297q4 27 26.5 32t137.5 5q-213 -1030 -221 -1030q-36 -6 -106 -6 q-25 0 -50.5 27.5t-35.5 78.5l-27 139q-48 222 -76 510q-35 -313 -76 -512l-47 -237q-84 -6 -137 -6q-50 0 -70 100q-26 112 -75.5 337.5t-85.5 394.5z" />
<glyph unicode="x" horiz-adv-x="841" d="M31 0l291 532l-250 465q-7 17 1 21q14 6 173 6l76 -141q60 -110 110 -234q95 203 113 236l63 110q9 22 32.5 25.5t150.5 3.5l-263 -479l273 -506q8 -13 8 -23q0 -11 -33 -13.5t-158 -2.5l-75 135q-41 76 -135 277q-76 -173 -129 -279l-60 -100q-10 -24 -38.5 -28.5 t-149.5 -4.5z" />
<glyph unicode="y" horiz-adv-x="731" d="M-8 -315q0 57 24 92q46 -31 129 -31q53 0 90.5 50t59.5 171l-246 1012q-4 16 -4 22q0 16 27.5 19.5t136.5 3.5l113 -492q15 -72 28.5 -162.5t19.5 -145.5l7 -54q20 199 49 365l92 442q6 35 29 41t149 6l-252 -1079q-45 -193 -108.5 -266.5t-177.5 -73.5q-166 0 -166 80z " />
<glyph unicode="z" horiz-adv-x="686" d="M43 82q0 38 14 61l400 742h-211q-110 0 -189 -11q-6 35 -6 78q0 38 12 55t41 17h523q16 -16 16 -51q0 -38 -18 -80l-389 -739h182q135 0 217 20q4 -16 4 -72t-13.5 -79t-52.5 -23h-503q-27 25 -27 82z" />
<glyph unicode="{" horiz-adv-x="567" d="M84 600q0 58 35 82q26 17 37 26t27 30.5t22 54t6 81.5q0 56 -14 224q-15 124 -15 184q0 123 85.5 181.5t232.5 60.5q32 -43 32 -103q0 -50 -30 -57q-152 -12 -152 -166q0 -14 10 -151q13 -147 13 -222q0 -94 -28 -140.5t-83 -70.5q56 -22 83.5 -64.5t27.5 -129.5 q0 -72 -13 -215q-10 -142 -10 -160q0 -58 10 -95.5t33 -59t51 -31t74 -15.5q4 -54 4 -61q0 -42 -15 -66t-42 -24q-150 0 -216.5 68t-66.5 208q0 37 15 195q14 115 14 209q0 78 -27 113t-86 46q-14 32 -14 68z" />
<glyph unicode="|" horiz-adv-x="663" d="M250 -410v2034q0 33 22 39t144 6v-2038q0 -30 -22 -35.5t-144 -5.5z" />
<glyph unicode="}" horiz-adv-x="567" d="M37 -205q0 52 31 58q149 12 149 163q0 44 -8 154q-12 136 -12 221q0 95 27 141t81 70q-55 22 -81.5 65t-26.5 130q0 50 10 215q10 95 10 162q0 57 -10 94.5t-33 58t-50.5 30t-72.5 15.5q-8 33 -8 64q0 39 16 63.5t43 24.5q150 0 216.5 -69t66.5 -208q0 -47 -14 -194 q-15 -124 -15 -209q0 -78 27 -113.5t86 -46.5q14 -35 14 -68q0 -58 -37 -81q-26 -18 -36.5 -27t-26.5 -31t-21.5 -54t-5.5 -81q0 -88 15 -223q14 -154 14 -185q0 -123 -85.5 -182t-231.5 -59q-31 48 -31 102z" />
<glyph unicode="~" horiz-adv-x="819" d="M23 545q31 48 104 88.5t160 40.5q34 0 63.5 -8t44 -15.5t39.5 -23.5q59 -41 119 -41q80 0 145 69q16 13 31 13q28 0 48.5 -29t23.5 -72q-37 -52 -104.5 -92.5t-157.5 -40.5q-36 0 -68 8.5t-49.5 17.5t-42.5 25q-60 39 -109 39q-10 0 -20 -1.5t-20 -5t-17 -5.5t-18 -8 t-15 -8.5l-16 -10t-14 -8.5q-38 -26 -56 -31q-28 -2 -48 25t-23 74z" />
<glyph unicode="&#xa2;" d="M170 467q0 497 266 565v180q0 40 36 55t114 15v-242q50 -9 85.5 -28.5t35.5 -38.5q0 -75 -17 -119q-68 37 -139 37q-35 0 -62 -7t-57.5 -32t-50 -68.5t-32.5 -122.5t-13 -188q0 -94 8 -157t21 -100t39 -56t52 -24t70 -5q41 0 86.5 14t73.5 35q16 -41 16 -104 q0 -29 -49.5 -58.5t-113.5 -35.5v-191q0 -39 -34 -51t-116 -12v258q-55 9 -92.5 33.5t-67.5 76.5t-44.5 144t-14.5 227z" />
<glyph unicode="&#xa3;" horiz-adv-x="749" d="M31 567q0 109 8 128q9 15 24 16h97q4 140 28 239.5t67.5 158t100 84.5t131.5 26q86 0 145.5 -28t59.5 -81q0 -39 -22 -100q-67 43 -146 43q-46 0 -79 -14.5t-61 -50.5t-43 -105.5t-17 -171.5h266q0 -87 -5 -115.5t-28 -28.5h-233q4 -271 14 -403l321 -12q15 -44 15 -76 q0 -76 -107 -76h-385q-18 247 -22 567h-129z" />
<glyph unicode="&#xa5;" d="M61 1407q-5 17 6 21q17 6 183 6l80 -281q95 -309 98 -391q10 96 102 391l78 250q8 23 30 27t148 4l-196 -598h184q0 -78 -12 -108t-51 -30h-166l-35 -108v-92h266q0 -79 -12 -108.5t-53 -29.5h-201v-327v-1q0 -24 -20.5 -28t-143.5 -4v360h-268q0 80 12 109t53 29h203v84 l-41 116h-227q0 80 12 109t53 29h115z" />
<glyph unicode="&#xa8;" horiz-adv-x="550" d="M70 1294q0 55 22.5 86t67.5 31q44 0 62 -24.5t18 -83.5q0 -132 -90 -132q-40 0 -60 28t-20 95zM313 1290q0 57 22.5 89t67.5 32q44 0 62 -24.5t18 -83.5q0 -62 -23 -97t-65 -35q-41 0 -61.5 27.5t-20.5 91.5z" />
<glyph unicode="&#xa9;" horiz-adv-x="964" d="M74 1108q0 227 109 337.5t313 110.5q206 0 301.5 -101t95.5 -343q0 -220 -106.5 -338.5t-307.5 -118.5q-207 0 -306 104.5t-99 348.5zM197 1108q0 -183 69 -258.5t209 -75.5q131 0 212 83t81 257q0 171 -68 250.5t-206 79.5q-297 0 -297 -336zM322 1087q0 72 12 125 t29.5 82t44.5 46.5t50 22.5t52 5q30 0 61 -11t31 -22q0 -17 -12 -65q-40 16 -70 16q-22 0 -37.5 -6.5t-31.5 -25.5t-24.5 -62t-8.5 -109t10.5 -98.5t27.5 -40.5t50 -8q40 0 80 20q14 -31 14 -61q0 -14 -33 -28.5t-69 -14.5q-49 0 -78.5 7.5t-53.5 31.5t-34 71.5t-10 124.5z " />
<glyph unicode="&#xab;" horiz-adv-x="851" d="M37 518q0 30 74.5 156.5t149.5 237.5l75 112q28 0 52.5 -21t35.5 -42l10 -21q0 -35 -60 -140.5t-120 -193.5l-61 -88q10 -14 26.5 -38t58.5 -87.5t74.5 -116.5t59 -106t26.5 -74q-1 -4 -4 -10.5t-12.5 -23t-19.5 -29t-26.5 -23t-33.5 -10.5q-12 18 -33 48.5t-73.5 111 t-92.5 146t-73 128.5t-33 84zM389 514q0 29 73.5 145t147.5 217l74 101q27 0 51 -19.5t35 -39.5l10 -19q0 -33 -58 -129t-116 -176l-59 -80q10 -12 26 -33t56.5 -76.5t72 -102t57 -94t25.5 -67.5q-1 -4 -4 -10t-12 -22t-19.5 -28t-26 -22t-32.5 -10q-12 16 -32.5 43 t-72.5 99t-91.5 130.5t-72 115.5t-32.5 77z" />
<glyph unicode="&#xad;" horiz-adv-x="569" d="M76 506q0 87 5.5 115t29.5 28h383q0 -87 -5 -115t-28 -28h-385z" />
<glyph unicode="&#xae;" horiz-adv-x="964" d="M74 1108q0 227 109 337.5t313 110.5q206 0 301.5 -101t95.5 -343q0 -220 -106.5 -338.5t-307.5 -118.5q-207 0 -306 104.5t-99 348.5zM197 1108q0 -183 69 -258.5t209 -75.5q131 0 212 83t81 257q0 171 -68 250.5t-206 79.5q-297 0 -297 -336zM360 854v508q1 10 15 10h90 q166 0 166 -147q0 -98 -70 -142q72 -67 84 -211q0 -11 -6 -15.5t-27 -4.5l-51 2q-12 153 -72 205h-24h-27v-189q0 -12 -12 -14t-66 -2zM438 1130l33 -2q78 0 78 101q0 76 -74 76h-37v-175z" />
<glyph unicode="&#xb4;" horiz-adv-x="550" d="M100 1239q65 73 163 156.5t112 83.5q27 0 48 -40.5t28 -84.5q-25 -28 -129 -103t-158 -104q-16 0 -32 23t-24 46z" />
<glyph unicode="&#xb8;" horiz-adv-x="550" d="M143 -395q15 70 27 84q6 5 19 -0.5t33.5 -14t39.5 -8.5q64 0 64 70q0 69 -62 69q-23 0 -44 -3t-30 -6l-10 -3l39 211h92l-24 -125q2 2 35 2q41 0 70.5 -32.5t29.5 -98.5q0 -78 -46 -125t-118 -47q-28 0 -57 7t-43 13z" />
<glyph unicode="&#xbb;" horiz-adv-x="847" d="M68 139q0 34 59 127t119 170l59 76q1 0 -4.5 9.5t-18 27.5t-28.5 39q-133 192 -164 255q-18 38 -18 56q0 25 22.5 46t45.5 29l22 9q12 -16 32 -43.5t71.5 -100.5t90.5 -132.5t71 -117t32 -77.5q0 -33 -75.5 -149.5t-151.5 -216.5l-76 -101q-4 1 -9.5 3t-21 10.5t-27 18 t-21 26.5t-9.5 36zM410 94q0 34 62 140t124 195l61 89q-27 39 -67 98t-107 174t-67 150q0 25 24.5 46t49.5 30l24 8l32 -48t71.5 -109t90.5 -143t71 -125.5t32 -80.5q0 -33 -75.5 -162.5t-151.5 -242.5l-76 -113q-4 1 -10.5 3t-23.5 10.5t-30 18t-23.5 26.5t-10.5 36z" />
<glyph unicode="&#x2c6;" horiz-adv-x="550" d="M16 1198l234 252q15 6 35 6q30 0 51 -24q4 -4 11 -11.5t28 -29t39.5 -42t41.5 -46.5t39.5 -46t28 -37t11.5 -24q0 -21 -35 -34t-82 -13q-108 109 -135 158q-5 -6 -13 -16.5t-30 -37.5t-41 -47.5t-39.5 -37.5t-30.5 -17q-73 0 -113 47z" />
<glyph unicode="&#x2da;" horiz-adv-x="550" d="M80 1309q0 101 53 150.5t152 49.5t143.5 -43.5t44.5 -154.5q0 -99 -52 -149t-151 -50q-97 0 -143.5 44t-46.5 153zM197 1307q0 -84 77 -84q84 0 84 88q0 84 -73 84q-88 0 -88 -88z" />
<glyph unicode="&#x2dc;" horiz-adv-x="550" d="M-25 1253q94 154 232 154q49 0 92 -51q17 -17 24.5 -23.5t25 -15t36.5 -8.5q33 0 57 12.5t34 27.5t21 27.5t21 12.5q16 0 31 -23.5t22 -46.5l7 -23q-5 -11 -22 -31.5t-45.5 -47t-70 -45.5t-84.5 -19q-28 0 -51 9.5t-32 18t-27 27.5q-11 14 -18.5 22t-21.5 14.5t-30 6.5 q-24 0 -45 -12.5t-32.5 -27.5t-23 -27.5t-20.5 -12.5q-20 0 -40 20.5t-30 40.5z" />
<glyph unicode="&#x400;" horiz-adv-x="655" d="M92 0v1401q0 4 1 9.5t9 14.5t23 9h491v-12q0 -96 -4 -117t-26 -21h-330v-428h309q0 -102 -4 -126.5t-26 -24.5h-279v-555h352q0 -107 -4.5 -128.5t-28.5 -21.5h-483zM186 1751q7 44 28 84.5t48 40.5q8 0 56 -36.5t112.5 -96t106.5 -109.5q-1 -4 -3 -10t-8.5 -22 t-13.5 -28t-17.5 -22t-21.5 -10q-55 31 -159 106t-128 103z" />
<glyph unicode="&#x401;" horiz-adv-x="655" d="M92 0v1401q0 4 1 9.5t9 14.5t23 9h491v-12q0 -96 -4 -117t-26 -21h-330v-428h309q0 -102 -4 -126.5t-26 -24.5h-279v-555h352q0 -107 -4.5 -128.5t-28.5 -21.5h-483zM141 1704q3 117 90 117q45 0 63.5 -25.5t18.5 -87.5q-3 -127 -92 -127q-39 2 -59.5 29.5t-20.5 93.5z M385 1704q0 55 23.5 86t68.5 31q44 0 61 -25.5t17 -87.5q0 -61 -23 -94t-67 -33q-40 2 -60 29.5t-20 93.5z" />
<glyph unicode="&#x402;" horiz-adv-x="1003" d="M16 1278v123q0 33 35 33h697v-121q0 -20 -8 -27.5t-27 -7.5h-252v-266q107 35 192 35q126 0 190 -70.5t64 -233.5v-294q0 -108 -11 -189t-36 -145t-69.5 -97.5t-108.5 -33.5q-70 0 -105.5 32.5t-35.5 81.5q0 32 12 62q37 -13 65 -13q66 0 92.5 80t26.5 246v227 q0 116 -24.5 158.5t-98.5 42.5q-88 0 -153 -33v-835q0 -25 -21.5 -29t-144.5 -4v1278h-279z" />
<glyph unicode="&#x403;" horiz-adv-x="643" d="M117 0v1401q0 4 1 9.5t9 14.5t23 9h466q0 -103 -3.5 -122.5t-26.5 -19.5h-305v-1259q0 -4 -1 -9.5t-8.5 -14.5t-21.5 -9h-133zM258 1649q43 49 107 107.5t111.5 95t55.5 36.5q27 0 48 -40.5t28 -84.5q-24 -27 -128 -102t-158 -105q-17 0 -33 23t-23 47z" />
<glyph unicode="&#x404;" horiz-adv-x="712" d="M74 735q0 132 11 239t30 181t47.5 128.5t58.5 87t69 51.5t73.5 25.5t76.5 6.5q108 0 165 -34.5t57 -78.5q0 -58 -27 -100q-59 51 -143 51q-41 0 -69 -6.5t-62 -34.5t-55 -78.5t-37 -144.5t-19 -227h321q0 -100 -4.5 -125t-27.5 -25h-289q3 -136 19 -232.5t44.5 -152 t64.5 -80t83 -24.5q81 0 190 67q27 -64 27 -112q0 -53 -69.5 -95t-166.5 -42q-67 0 -117 15t-99.5 62t-81 128t-51 220t-19.5 330z" />
<glyph unicode="&#x405;" horiz-adv-x="733" d="M51 100q0 64 43 119q79 -72 211 -72q203 0 203 209q0 73 -26.5 132.5t-94.5 138.5l-205 239q-70 84 -99.5 152.5t-29.5 142.5q0 132 93 212.5t260 80.5q138 0 203 -28t65 -74q0 -51 -41 -95q-22 19 -78.5 34.5t-122.5 15.5q-93 0 -147 -37.5t-54 -104.5q0 -53 22 -95.5 t73 -106.5l223 -252q78 -93 107.5 -170.5t29.5 -175.5q0 -82 -18.5 -149t-59.5 -121.5t-113.5 -84.5t-172.5 -30q-129 0 -200 37t-71 83z" />
<glyph unicode="&#x406;" horiz-adv-x="346" d="M90 0v1358q0 57 21.5 66.5t146.5 9.5v-1401q0 -25 -22 -29t-146 -4z" />
<glyph unicode="&#x407;" horiz-adv-x="346" d="M-33 1704q3 117 90 117q46 0 64 -25.5t16 -87.5q0 -61 -23 -94t-67 -33q-40 2 -60 29.5t-20 93.5zM90 0v1358q0 57 21.5 66.5t146.5 9.5v-1401q0 -25 -22 -29t-146 -4zM211 1704q0 55 22.5 86t67.5 31t62.5 -25.5t17.5 -87.5q0 -61 -23 -94t-67 -33q-41 2 -61 29.5 t-19 93.5z" />
<glyph unicode="&#x408;" horiz-adv-x="614" d="M29 102q0 40 24 95q72 -68 170 -68q84 0 108.5 55.5t24.5 190.5v983q0 57 21 66.5t147 9.5v-1096q0 -64 -7.5 -115t-26.5 -97.5t-50 -77t-80.5 -48.5t-115.5 -18q-115 0 -165 34.5t-50 85.5z" />
<glyph unicode="&#x409;" horiz-adv-x="1249" d="M-6 88q0 25 2 37q120 3 161.5 255t78.5 1004q1 24 9 33t37 13t99 4h385v-584h115q182 0 261 -88.5t79 -280.5q0 -228 -97.5 -354.5t-265.5 -126.5h-256v1278h-211q-34 -694 -98 -991t-205 -297q-42 0 -68 24t-26 74zM766 150q41 -5 88 -5q94 0 135 75t41 245 q0 130 -34.5 179.5t-125.5 49.5h-104v-544z" />
<glyph unicode="&#x40a;" horiz-adv-x="1257" d="M117 0v1401v1q0 24 20.5 28t143.5 4v-584h327v551q0 25 21 29t145 4v-584h115q182 0 261 -88.5t79 -280.5q0 -228 -97.5 -354.5t-265.5 -126.5h-258v694h-327v-661v-1q0 -24 -20.5 -28t-143.5 -4zM774 150q67 -5 88 -5q93 0 133.5 74.5t40.5 245.5q0 131 -33.5 180 t-123.5 49h-105v-544z" />
<glyph unicode="&#x40b;" horiz-adv-x="980" d="M16 1278v123q0 33 35 33h688v-121q0 -20 -6.5 -27.5t-25.5 -7.5h-254v-258q80 24 161 24q160 0 223.5 -61.5t63.5 -212.5v-737q0 -25 -22.5 -29t-147.5 -4v721q0 102 -24.5 141t-98.5 39q-88 0 -155 -37v-831q0 -25 -21 -29t-143 -4v1278h-273z" />
<glyph unicode="&#x40c;" horiz-adv-x="833" d="M117 0v1401q0 25 20.5 29t145.5 4v-609h75q42 0 78 41t53 117l101 440q63 13 106 13q45 0 57.5 -10t6.5 -40l-109 -430q-36 -140 -125 -192q137 -77 174 -336l62 -391q3 -25 -11 -33t-57 -8q-54 0 -112 6l-62 399q-32 267 -172 267h-65v-635q0 -25 -21 -29t-145 -4z M281 1649q43 49 107.5 107.5t112 95t54.5 36.5q27 0 49 -41t29 -84q-24 -27 -129 -102t-160 -105q-16 0 -32 23t-24 47z" />
<glyph unicode="&#x40d;" horiz-adv-x="917" d="M117 0v1401v3q0 19 10 23q14 7 143 7v-701q0 -202 -18 -426q12 42 27 86.5t38.5 107t37.5 98.5t50 126.5t50 126.5l196 541q11 31 33 36t117 5v-1401q0 -24 -21.5 -28.5t-134.5 -4.5v514q0 295 25 602q-48 -186 -195 -561l-203 -514q-10 -31 -31.5 -36t-123.5 -5z M305 1751q7 43 29 84t49 41q7 0 54.5 -36.5t112 -96t107.5 -109.5q-1 -4 -3 -10t-8.5 -22t-13.5 -28t-17.5 -22t-20.5 -10q-56 30 -160.5 105.5t-128.5 103.5z" />
<glyph unicode="&#x40e;" horiz-adv-x="770" d="M27 1409q0 15 9.5 20t33.5 5h116l127 -496q43 -178 86 -465q17 171 80 457l103 446q7 32 17.5 45t39.5 13h117l-269 -1151q-9 -39 -13.5 -56.5t-13 -49.5t-15 -46.5t-17 -38.5t-21 -35t-26 -26t-32.5 -21.5t-39 -11.5t-48 -6q-65 -2 -107.5 22t-45.5 68q-4 35 26 96 q63 -39 113 -39q35 0 52 30.5t32 102.5q-38 111 -133.5 466t-159.5 610q-12 50 -12 61zM121 1782q-1 32 24 53t80 35q19 -91 55.5 -136.5t110.5 -45.5q68 0 100 36.5t56 120.5q9 19 34.5 15.5t54.5 -26t36 -46.5q-44 -108 -106 -160.5t-181 -52.5q-115 0 -185.5 63 t-78.5 144z" />
<glyph unicode="&#x40f;" horiz-adv-x="874" d="M117 0v1401q0 25 21 29t143 4v-1278h313v1245q0 25 21 29t143 4v-1401q0 -23 -10.5 -28t-53.5 -5h-178v-276q0 -31 -19.5 -39.5t-80.5 -8.5q-38 178 -47 324h-252z" />
<glyph unicode="&#x410;" horiz-adv-x="894" d="M10 2l367 1409q6 29 61 29q48 0 78 -6l367 -1403q3 -19 -11 -27t-61 -8q-55 0 -98 4l-86 365h-357l-80 -336q-5 -19 -18 -26t-59 -7q-45 0 -103 6zM305 514h285l-70 295q-59 243 -71 395q-22 -179 -74 -395z" />
<glyph unicode="&#x411;" horiz-adv-x="798" d="M117 0v1401q0 4 1 9.5t9 14.5t23 9h528q0 -112 -4 -134t-27 -22h-364v-428h114q182 0 262 -88.5t80 -280.5q0 -228 -97 -354.5t-265 -126.5h-260zM283 147q27 -2 88 -2q93 0 133.5 74.5t40.5 245.5q0 131 -33.5 180t-124.5 49h-104v-547z" />
<glyph unicode="&#x412;" horiz-adv-x="823" d="M117 0v1395q0 20 11 29.5t42 9.5h203q344 0 344 -316q0 -66 -12 -120.5t-32 -91t-46 -63.5t-52.5 -40t-54.5 -17q33 -2 62 -9t63.5 -27.5t59 -51.5t41 -85.5t16.5 -125.5q0 -126 -30.5 -221.5t-85 -152.5t-123 -85t-150.5 -28h-256zM283 145h94q83 0 137.5 81.5 t54.5 246.5q0 77 -13 126t-41.5 71.5t-58 29.5t-77.5 7h-96v-562zM283 848h102q68 0 110 59t42 178q0 115 -42.5 159t-111.5 44h-100v-440z" />
<glyph unicode="&#x413;" horiz-adv-x="643" d="M117 0v1401q0 4 1 9.5t9 14.5t23 9h466q0 -103 -3.5 -122.5t-26.5 -19.5h-305v-1259q0 -4 -1 -9.5t-8.5 -14.5t-21.5 -9h-133z" />
<glyph unicode="&#x414;" horiz-adv-x="944" d="M33 156h35q35 0 56.5 20t44 87.5t39 204.5t33.5 362.5t35 570.5q0 25 14.5 29t98.5 4h414v-1278h102v-432q0 -31 -19.5 -39.5t-80.5 -8.5q-40 172 -49 324h-576q-5 -129 -47 -324q-61 0 -80.5 8.5t-19.5 39.5v432zM279 156h358v1122h-205q-35 -536 -67 -780t-86 -342z " />
<glyph unicode="&#x415;" horiz-adv-x="655" d="M92 0v1401q0 4 1 9.5t9 14.5t23 9h491v-12q0 -96 -4 -117t-26 -21h-330v-428h309q0 -102 -4 -126.5t-26 -24.5h-279v-555h352q0 -107 -4.5 -128.5t-28.5 -21.5h-483z" />
<glyph unicode="&#x416;" horiz-adv-x="1253" d="M76 35l57 399q14 122 57.5 208t110.5 124q-87 53 -123 195l-98 428q-2 6 -2 18q0 17 12.5 23t48.5 6q41 0 101 -13l92 -436q17 -79 52.5 -120.5t78.5 -41.5h84v576q0 25 20 29t140 4v-609h84q42 0 77 41.5t52 120.5l94 436q57 13 98 13q37 0 50.5 -6t13.5 -23 q0 -12 -2 -18l-101 -428q-33 -142 -121 -195q67 -38 110 -123.5t58 -208.5l58 -399q3 -22 -11 -30.5t-55 -8.5q-48 0 -106 6l-56 408q-33 266 -168 266h-75v-643q0 -25 -20 -29t-140 -4v676h-76q-138 0 -168 -266l-57 -408q-56 -6 -105 -6q-41 0 -54.5 8.5t-10.5 30.5z" />
<glyph unicode="&#x417;" horiz-adv-x="745" d="M43 141q0 57 33 103q90 -103 258 -103q192 0 192 291q0 117 -50.5 176.5t-133.5 59.5h-98q-47 0 -47 57v98h202q80 106 80 262q0 99 -38 153t-107 54q-103 0 -193 -94q-45 63 -45 96q0 24 13.5 50t42 51t82.5 41t124 16q146 0 223.5 -84t77.5 -233q0 -97 -37 -192 t-92 -157q175 -92 175 -344q0 -235 -95.5 -347.5t-261.5 -112.5q-135 0 -220 47.5t-85 111.5z" />
<glyph unicode="&#x418;" horiz-adv-x="917" d="M117 0v1401v3q0 19 10 23q14 7 143 7v-701q0 -202 -18 -426q32 110 149 410q8 23 27 68t27 67l196 541q11 31 33 36t117 5v-1401q0 -24 -21.5 -28.5t-134.5 -4.5v514q0 295 25 602q-48 -186 -195 -561l-203 -514q-10 -31 -31.5 -36t-123.5 -5z" />
<glyph unicode="&#x419;" horiz-adv-x="917" d="M117 0v1401v3q0 19 10 23q14 7 143 7v-701q0 -202 -18 -426q12 42 27 86.5t38.5 107t37.5 98.5t50 126.5t50 126.5l196 541q11 31 33 36t117 5v-1401q0 -24 -21.5 -28.5t-134.5 -4.5v514q0 295 25 602q-48 -186 -195 -561l-203 -514q-10 -31 -31.5 -36t-123.5 -5z M186 1782q0 61 105 88q21 -91 57.5 -136.5t110.5 -45.5q68 0 99.5 36.5t55.5 120.5q9 19 34.5 15.5t54 -26t34.5 -46.5q-21 -53 -42.5 -88.5t-54 -65.5t-79 -44.5t-108.5 -14.5q-116 0 -187.5 63t-79.5 144z" />
<glyph unicode="&#x41a;" horiz-adv-x="833" d="M117 0v1401q0 25 20.5 29t145.5 4v-609h75q42 0 78 41t53 117l101 440q63 13 106 13q38 0 52 -6.5t14 -24.5q0 -11 -2 -19l-109 -430q-36 -140 -125 -192q137 -77 174 -336l62 -391q3 -25 -11 -33t-57 -8q-54 0 -112 6l-62 399q-32 267 -172 267h-65v-635q0 -25 -21 -29 t-145 -4z" />
<glyph unicode="&#x41b;" horiz-adv-x="876" d="M0 82q0 9 4 37q118 3 159.5 257t78.5 1008q1 24 9 33t37 13t99 4h375v-1401q0 -25 -21 -29t-145 -4v1278h-199q-34 -695 -97.5 -994.5t-203.5 -299.5q-96 0 -96 98z" />
<glyph unicode="&#x41c;" horiz-adv-x="1054" d="M117 0v1401q0 15 5 22.5t11 9t17 1.5h118l197 -623q12 -36 28.5 -93t26.5 -96l10 -38q35 145 60 221l180 596q11 25 19 30q7 3 16 3h133v-1401q0 -25 -21 -29t-147 -4l6 502q3 164 37 610q-114 -413 -133 -467l-109 -315q-6 -17 -22 -17h-72l-106 332q-30 93 -131 463 l-2 -2q35 -381 41 -596v-477q0 -24 -22.5 -28.5t-139.5 -4.5z" />
<glyph unicode="&#x41d;" horiz-adv-x="888" d="M117 0v1401v1q0 24 20.5 28t143.5 4v-584h327v551v1q0 24 20.5 28t145.5 4v-1401v-1q0 -24 -20.5 -28t-145.5 -4v694h-327v-661v-1q0 -24 -20.5 -28t-143.5 -4z" />
<glyph unicode="&#x41e;" horiz-adv-x="905" d="M74 725q0 270 44 431.5t128.5 229.5t220.5 68t213.5 -66t114 -222.5t36.5 -434.5q0 -281 -41.5 -445.5t-124.5 -235t-221 -70.5q-103 0 -170 33.5t-113.5 118t-66.5 228t-20 365.5zM260 684q0 -292 42 -413t151 -121q110 0 154 130.5t44 446.5q0 314 -39.5 435.5 t-146.5 121.5q-74 0 -118 -57.5t-65.5 -189t-21.5 -353.5z" />
<glyph unicode="&#x41f;" horiz-adv-x="868" d="M117 0v1401q0 25 21 29t143 4h473v-1401q0 -25 -21.5 -29t-144.5 -4v1278h-307v-1245q0 -25 -21 -29t-143 -4z" />
<glyph unicode="&#x420;" horiz-adv-x="739" d="M90 0v1401q0 18 7 25.5t26 7.5h203q195 0 285.5 -96.5t90.5 -307.5q0 -123 -29.5 -212t-82 -139.5t-117.5 -73.5t-145 -23h-74v-549q0 -25 -21 -29t-143 -4zM254 735h90q90 0 133 73t43 241q0 116 -38 177.5t-126 61.5h-102v-553z" />
<glyph unicode="&#x421;" horiz-adv-x="698" d="M61 657q0 146 13 264.5t35 200t54 142.5t66 97t76.5 57.5t79.5 28.5t80 7q103 0 147.5 -33.5t44.5 -79.5q0 -54 -26 -100q-64 51 -133 51q-36 0 -65 -9t-60.5 -32t-55 -68.5t-42.5 -112.5t-29 -169.5t-10 -234.5q0 -152 14.5 -254t43 -155.5t63 -74t83.5 -20.5 q57 0 109 19t82 46q24 -54 24 -100q0 -61 -71 -104t-183 -43q-46 0 -81 6t-71.5 24t-63.5 48.5t-51.5 81.5t-39.5 121.5t-24 170t-9 225.5z" />
<glyph unicode="&#x422;" horiz-adv-x="763" d="M16 1278v123q0 33 35 33h697v-121q0 -20 -8 -27.5t-27 -7.5h-252v-1245q0 -25 -21.5 -29t-144.5 -4v1278h-279z" />
<glyph unicode="&#x423;" horiz-adv-x="770" d="M27 1409q0 15 9.5 20t33.5 5h116l127 -496q43 -178 86 -465q17 171 80 457l103 446q7 32 17.5 45t39.5 13h117l-269 -1151q-9 -39 -13.5 -57t-13.5 -50t-15 -47t-17 -39t-21.5 -35t-26 -26t-33 -21t-40 -11t-49.5 -5q-65 0 -107 25t-42 69q0 36 26 92q63 -39 113 -39 q35 0 52 30.5t32 102.5q-38 111 -133.5 466t-159.5 610q-12 50 -12 61z" />
<glyph unicode="&#x424;" horiz-adv-x="1153" d="M74 752q0 540 420 591v107q0 57 21 66.5t144 9.5v-178q218 -24 319 -171.5t101 -420.5q0 -562 -420 -611v-106v-3q0 -42 -20.5 -49t-142.5 -7v161q-222 18 -322 168.5t-100 442.5zM246 735q0 -422 250 -442v899q-250 -26 -250 -457zM659 299q242 26 242 453 q0 208 -56.5 320t-185.5 124v-897z" />
<glyph unicode="&#x425;" horiz-adv-x="868" d="M18 0l314 741l-258 664q-6 18 7 22q19 7 187 7l84 -234q50 -134 101 -307q47 160 102 307l80 207q5 17 16 21q17 6 162 6l-264 -680l295 -727q6 -12 1 -19.5t-20 -7.5h-180l-110 276q-60 154 -111 306q-58 -170 -115 -306l-110 -256q-13 -20 -37 -20h-144z" />
<glyph unicode="&#x426;" horiz-adv-x="901" d="M117 0v1401q0 25 21 29t143 4v-1278h313v1245q0 25 21 29t143 4v-1278h104v-432q0 -31 -19.5 -39.5t-80.5 -8.5q-42 195 -47 324h-598z" />
<glyph unicode="&#x427;" horiz-adv-x="792" d="M61 928v473q0 25 20.5 29t141.5 4v-484q0 -243 142 -243q73 0 149 30v664q0 25 21 29t143 4v-1401q0 -25 -21 -29t-143 -4v584q-110 -29 -192 -29q-131 0 -195.5 88.5t-65.5 284.5z" />
<glyph unicode="&#x428;" horiz-adv-x="1214" d="M117 0v1401v1q0 24 20.5 28t143.5 4v-1278h243v1245v1q0 24 20.5 28t145.5 4v-1278h244v1245v1q0 24 20.5 28t143.5 4v-1354q0 -59 -25.5 -69.5t-159.5 -10.5h-796z" />
<glyph unicode="&#x429;" horiz-adv-x="1241" d="M117 0v1401v1q0 24 20.5 28t143.5 4v-1278h243v1245v1q0 24 20.5 28t145.5 4v-1278h244v1245v1q0 24 20.5 28t143.5 4v-1278h104v-432q0 -31 -19.5 -39.5t-80.5 -8.5q-42 195 -47 324h-938z" />
<glyph unicode="&#x42a;" horiz-adv-x="931" d="M37 1278v108q0 48 41 48h358v-584h115q182 0 261 -88.5t79 -280.5q0 -228 -97.5 -354.5t-265.5 -126.5h-258v1278h-233zM436 150q68 -5 88 -5q93 0 133.5 74.5t40.5 245.5q0 131 -33.5 180t-123.5 49h-105v-544z" />
<glyph unicode="&#x42b;" horiz-adv-x="1124" d="M117 0v1397q0 28 20.5 32.5t143.5 4.5v-584h114q182 0 261 -88.5t79 -280.5q0 -228 -97 -354.5t-265 -126.5h-256zM281 150q35 -5 88 -5q94 0 135 75t41 245q0 130 -34.5 179.5t-125.5 49.5h-104v-544zM866 0v1358q0 57 22 66.5t146 9.5v-1401q0 -25 -21.5 -29t-146.5 -4 z" />
<glyph unicode="&#x42c;" horiz-adv-x="776" d="M117 0v1397q0 28 20.5 32.5t143.5 4.5v-584h114q182 0 261 -88.5t79 -280.5q0 -228 -97 -354.5t-265 -126.5h-256zM281 150q35 -5 88 -5q94 0 135 75t41 245q0 130 -34.5 179.5t-125.5 49.5h-104v-544z" />
<glyph unicode="&#x42d;" horiz-adv-x="722" d="M41 111q0 46 29 120q101 -69 188 -69q98 0 153.5 112.5t61.5 376.5h-291q-22 0 -26 24.5t-4 125.5h321q-3 133 -18.5 227.5t-36 145t-53 78t-59.5 34t-66 6.5q-91 0 -150 -51q-27 48 -27 100q0 44 57.5 78.5t166.5 34.5q42 0 76.5 -6.5t73 -25.5t68 -51.5t57.5 -87 t46.5 -128.5t29.5 -181t11 -239q0 -191 -20 -330t-52 -220t-82.5 -128t-101 -62t-117.5 -15q-91 0 -163 41.5t-72 89.5z" />
<glyph unicode="&#x42e;" horiz-adv-x="1243" d="M117 0v1401q0 21 9 26q21 7 148 7v-631h158q5 239 48 383.5t122 206t203 61.5q135 0 212 -65.5t114.5 -223t37.5 -434.5q0 -280 -41 -445.5t-123 -235.5t-217 -70q-77 0 -131.5 18.5t-98 63.5t-70 122t-41.5 191t-17 274h-156v-616q0 -21 -9 -26q-21 -7 -148 -7zM612 684 q0 -292 40 -413t141 -121q108 0 151 130.5t43 446.5q0 314 -39 436.5t-145 122.5q-69 0 -110 -58t-61 -190t-20 -354z" />
<glyph unicode="&#x42f;" horiz-adv-x="798" d="M47 0l92 453q13 66 49.5 111t102.5 79q-97 41 -156 144t-59 245q0 210 92 306t276 96h205q15 0 23 -8t9 -16l1 -9v-1401q-123 0 -143.5 4t-20.5 28v1v565h-51q-58 0 -100.5 -41t-57.5 -117l-78 -403q-5 -26 -16 -33.5t-59 -7.5q-39 0 -109 4zM258 1051 q0 -140 47.5 -219.5t126.5 -79.5q42 0 86 6v526q-35 4 -102 4q-78 0 -118 -62t-40 -175z" />
<glyph unicode="&#x430;" horiz-adv-x="724" d="M59 291q0 69 10.5 123.5t30.5 90.5t44.5 60.5t57 37.5t63.5 18.5t69 5.5q94 0 149 -27v162q0 70 -31 96.5t-96 26.5q-75 0 -150 -13.5t-122 -33.5q-23 45 -23 96q0 41 23 55q30 20 118 37.5t195 17.5q133 0 192.5 -56.5t59.5 -192.5v-109q0 -450 -12 -637 q-115 -69 -285 -69q-51 -1 -88.5 4t-78.5 23.5t-66.5 51t-42.5 91.5t-17 141zM231 295q0 -106 34 -141t104 -35q32 0 62.5 10t45.5 23q6 70 6 331q-40 21 -96 21q-35 0 -60.5 -8t-48.5 -29t-35 -64t-12 -108z" />
<glyph unicode="&#x431;" horiz-adv-x="788" d="M76 557v201q0 201 23 319t77.5 188.5t155.5 108.5l360 137q33 -88 33 -116q0 -42 -72 -66l-247 -88q-119 -41 -162 -131t-45 -289q41 120 97.5 171.5t156.5 51.5q144 0 212 -114.5t68 -388.5q0 -296 -85 -428.5t-253 -132.5q-76 0 -128.5 17t-90.5 55.5t-59.5 107 t-31 163.5t-9.5 234zM252 516q0 -161 16.5 -249t46.5 -118t82 -30q50 0 83 33t53 124t20 244q0 148 -15.5 232.5t-45.5 118.5t-82 34q-80 0 -119 -88t-39 -301z" />
<glyph unicode="&#x432;" horiz-adv-x="759" d="M92 0v991q0 33 55 33h191q52 0 93.5 -5t85.5 -20t73 -40.5t48 -69.5t19 -103q0 -51 -13.5 -93t-33.5 -68.5t-44.5 -45.5t-44.5 -27.5t-36 -10.5q36 -4 64 -13q66 -21 99 -55q52 -54 52 -147q0 -145 -91 -235.5t-269 -90.5h-248zM250 135h92q84 0 129 50t45 151 q0 75 -36.5 107t-125.5 32q-25 0 -59 -1t-45 -1v-338zM250 588q31 -2 88 -2q64 0 106.5 41.5t42.5 130.5q0 28 -4.5 49.5t-11.5 36t-20 24.5t-24.5 15t-30 8t-31.5 3.5t-35 0.5l-80 -2v-305z" />
<glyph unicode="&#x433;" horiz-adv-x="583" d="M104 0v977q0 30 13.5 38.5t50.5 8.5h395q0 -96 -6.5 -117.5t-38.5 -21.5h-248v-848q0 -28 -21 -32.5t-145 -4.5z" />
<glyph unicode="&#x434;" horiz-adv-x="890" d="M59 156h64q50 50 83.5 229.5t55.5 589.5q2 34 15.5 41.5t76.5 7.5h400v-868h104v-432q0 -31 -19.5 -39.5t-80.5 -8.5q-40 172 -49 324h-502q-9 -152 -49 -324q-60 0 -79.5 8.5t-19.5 39.5v432zM295 156h295v729h-180q-19 -335 -46 -494.5t-69 -234.5z" />
<glyph unicode="&#x435;" horiz-adv-x="739" d="M61 459q0 148 21 257t54 170.5t83 98.5t97 48t108 11q260 0 260 -327q0 -164 -22 -266q-165 -33 -431 -33q6 -160 50.5 -219.5t142.5 -59.5q120 0 233 66q15 -49 15 -113q0 -47 -83.5 -79.5t-199.5 -32.5q-61 0 -107.5 11t-89.5 42.5t-70.5 83.5t-44 138.5t-16.5 203.5z M231 551q187 -5 283 22q10 46 10 123q-2 114 -26.5 158.5t-91.5 44.5q-35 0 -62.5 -15.5t-52 -53t-40 -108t-20.5 -171.5z" />
<glyph unicode="&#x436;" horiz-adv-x="1153" d="M63 1004q0 13 14.5 17.5t49.5 4.5q50 0 96 -10l76 -285q13 -56 41.5 -85.5t65.5 -29.5h92v379q0 18 9 23q15 6 148 6v-408h93q76 0 106 121l74 279q46 10 98 10q34 0 47.5 -4.5t13.5 -17.5q0 -11 -4 -17l-82 -272q-20 -60 -49.5 -101t-60.5 -55q112 -44 143 -250l51 -278 q3 -21 -9 -28t-52 -7q-48 0 -100 6l-54 289q-15 104 -43.5 143t-89.5 39h-82v-444q0 -18 -9 -23q-15 -6 -148 -6v473h-84q-64 0 -93.5 -39t-44.5 -143l-47 -289q-55 -6 -102 -6q-39 0 -51 7t-10 28l49 276q28 210 147 252q-70 26 -110 148l-84 280q-5 15 -5 17z" />
<glyph unicode="&#x437;" horiz-adv-x="675" d="M57 98q0 44 29 101q95 -78 207 -78q29 0 54.5 7.5t50 25.5t39 54t14.5 87q0 168 -160 168h-82q-41 0 -41 43v90h176q72 72 72 172q0 135 -125 135q-91 0 -174 -72q-37 57 -37 91q0 41 60.5 81.5t172.5 40.5q132 0 197 -60t65 -169q0 -153 -112 -254q78 -38 115.5 -99.5 t37.5 -162.5q0 -156 -85 -237.5t-236 -81.5q-99 0 -168.5 33.5t-69.5 84.5z" />
<glyph unicode="&#x438;" horiz-adv-x="843" d="M104 0v993q0 22 24 26.5t132 4.5v-469q0 -51 -16 -195q-3 -31 -13 -112q5 10 23 49q106 236 139 295l199 393q13 28 34.5 33.5t112.5 5.5v-993q0 -22 -21 -26.5t-132 -4.5v444q0 62 14 185q12 119 14 164q-149 -333 -165 -363l-197 -391q-15 -29 -35.5 -34t-112.5 -5z " />
<glyph unicode="&#x439;" horiz-adv-x="843" d="M104 0v993q0 22 24 26.5t132 4.5v-469q0 -46 -14 -169t-15 -138q138 300 162 344l199 393q13 28 34.5 33.5t112.5 5.5v-993q0 -22 -21 -26.5t-132 -4.5v444q0 47 13 179.5t15 169.5q-149 -333 -165 -363l-197 -391q-15 -29 -35.5 -34t-112.5 -5zM143 1372q-3 61 103 88 q21 -91 57.5 -136.5t110.5 -45.5q36 0 61 10t42.5 32.5t28.5 48t23 67.5q9 19 34.5 15t54 -26.5t34.5 -46.5q-21 -53 -42.5 -88.5t-54 -65.5t-79 -44.5t-108.5 -14.5q-117 0 -187.5 63t-77.5 144z" />
<glyph unicode="&#x43a;" horiz-adv-x="747" d="M104 0v995q0 22 20 25.5t142 3.5v-403h60q90 0 118 104l84 291q49 10 101 10q36 0 49.5 -4.5t13.5 -17.5q0 -11 -2 -17l-96 -289q-35 -99 -107 -137q59 -29 99 -96t53 -160l53 -274q2 -21 -10.5 -28t-54.5 -7q-47 0 -103 6l-53 283q-15 104 -50 147t-104 43h-51v-446 q0 -22 -20 -25.5t-142 -3.5z" />
<glyph unicode="&#x43b;" horiz-adv-x="815" d="M0 86q0 9 4 37q107 1 143 167.5t68 686.5q1 23 8.5 31t35 12t97.5 4h355v-991v-3q0 -23 -21 -26.5t-147 -3.5v885h-172q-29 -484 -89.5 -688.5t-191.5 -204.5q-90 0 -90 94z" />
<glyph unicode="&#x43c;" horiz-adv-x="983" d="M104 0v1001q0 3 1 6.5t8.5 10t21.5 6.5h148l159 -451l54 -157q20 79 57 194l135 391q1 2 3 5t2.5 4.5t2.5 4t3 3.5t3.5 2.5t5 2t6 1t7.5 0.5h156v-1001q0 -17 -19.5 -20t-132.5 -3v365q0 138 10 428q-55 -176 -114 -332l-86 -223q-7 -11 -21 -11h-70l-86 234 q-29 104 -110 325l-2 -2q8 -153 8 -315q0 -65 -2 -96v-350q0 -8 -3.5 -12t-19.5 -7t-43.5 -3.5t-81.5 -0.5z" />
<glyph unicode="&#x43d;" horiz-adv-x="815" d="M104 0v991v2q0 23 21 27t147 4v-440h271v407q0 25 21.5 29t144.5 4v-991v-2q0 -23 -20.5 -27t-145.5 -4v440h-271v-407v-1q0 -24 -21 -28t-147 -4z" />
<glyph unicode="&#x43e;" horiz-adv-x="770" d="M55 512q0 532 342 532q84 0 140.5 -24t98 -83t60.5 -162.5t19 -258.5q0 -278 -85 -407t-253 -129q-68 0 -114.5 11t-88.5 43.5t-66.5 91t-38.5 154t-14 232.5zM236 508q0 -124 9 -203t29 -119t44 -53.5t63 -13.5q36 0 62.5 17.5t48 60.5t32.5 123t11 196q0 160 -17 246.5 t-46 114.5t-81 28q-50 0 -82 -31.5t-52.5 -121.5t-20.5 -244z" />
<glyph unicode="&#x43f;" horiz-adv-x="806" d="M104 0v985q0 28 22 33.5t144 5.5h432v-991q0 -21 -10 -26q-21 -7 -155 -7v868h-267v-835q0 -25 -21 -29t-145 -4z" />
<glyph unicode="&#x440;" horiz-adv-x="782" d="M94 -332v1295q128 81 299 81q80 0 138.5 -20t104 -66.5t68.5 -131.5t23 -208q0 -115 -10 -208.5t-26 -159t-40.5 -114.5t-50 -78.5t-57.5 -47.5t-60.5 -24t-60.5 -6q-105 0 -162 57v-428q-40 -12 -86 -12q-44 0 -62 14.5t-18 56.5zM260 195q42 -68 111 -68q174 0 174 473 q0 120 -19 187t-52 90.5t-89 23.5q-70 0 -125 -39v-667z" />
<glyph unicode="&#x441;" horiz-adv-x="641" d="M63 489q0 102 12 185t31.5 140t48.5 99.5t59.5 67t69.5 39.5t72.5 19.5t73.5 4.5q73 0 122.5 -26.5t49.5 -65.5q0 -47 -18 -92q-72 39 -146 39q-32 0 -57.5 -7t-54.5 -32.5t-48 -68.5t-32 -120.5t-13 -183.5q0 -142 21 -222t59.5 -109t104.5 -29q98 0 164 47 q16 -59 16 -90q0 -42 -65 -73t-164 -31q-63 0 -108 11.5t-84.5 43.5t-63 88t-37 147t-13.5 219z" />
<glyph unicode="&#x442;" horiz-adv-x="647" d="M18 881q0 99 5 121t32 22h576q0 -98 -5.5 -120.5t-31.5 -22.5h-186v-848v-1q0 -24 -20.5 -28t-143.5 -4v881h-226z" />
<glyph unicode="&#x443;" horiz-adv-x="712" d="M27 999q0 18 28 21.5t138 3.5l110 -492q15 -72 28.5 -162.5t20.5 -145.5l6 -54q21 199 52 365l92 442q4 35 27 41t149 6l-252 -1079q-44 -183 -102.5 -262.5t-149.5 -81.5q-92 0 -92 94q0 25 2 39q78 0 120 47t77 180l-250 1018q-4 16 -4 20z" />
<glyph unicode="&#x444;" horiz-adv-x="1050" d="M70 512q0 254 88.5 380t292.5 146v394q0 50 25.5 61.5t121.5 11.5v-463q211 -12 300 -134.5t89 -391.5t-90 -392t-299 -140v-322q0 -41 -14 -54.5t-62 -13.5q-20 0 -71 7v381q-139 5 -219.5 53.5t-121 163t-40.5 313.5zM236 506q0 -196 45 -283t170 -104v784 q-123 -20 -169 -110.5t-46 -286.5zM598 119q127 20 175 111t48 286q0 202 -45 289t-178 100v-786z" />
<glyph unicode="&#x445;" horiz-adv-x="841" d="M31 0l291 532l-250 465q-7 17 1 21q14 6 173 6l76 -141q60 -110 110 -234q95 203 113 236l63 110q9 22 32.5 25.5t150.5 3.5l-263 -479l273 -506q12 -25 4 -30q-12 -9 -134 -9h-1h-1h-1h-1h-1h-1h-1h-1h-1h-1h-1h-1h-1h-1h-1h-1h-1h-1h-1h-1h-1h-1h-1h-1h-1h-1h-1h-1h-1 h-1h-1h-1h-1h-1h-1h-1h-1h-1h-1h-1h-1h-1h-1h-1h-9l-75 135q-41 76 -135 277q-76 -173 -129 -279l-60 -100q-10 -24 -38.5 -28.5t-149.5 -4.5z" />
<glyph unicode="&#x446;" horiz-adv-x="845" d="M104 0v991q0 25 21 29t145 4v-868h267v835q0 21 10 26q21 7 155 7v-868h105v-432q0 -31 -19 -39.5t-79 -8.5q-41 178 -50 324h-555z" />
<glyph unicode="&#x447;" horiz-adv-x="757" d="M72 647v344q0 25 20.5 29t143.5 4v-356q0 -89 27.5 -124.5t96.5 -35.5t127 20v463q0 25 20.5 29t145.5 4v-991v-1q0 -24 -20.5 -28t-145.5 -4v383q-85 -18 -161 -18q-134 0 -194 62.5t-60 219.5z" />
<glyph unicode="&#x448;" horiz-adv-x="1181" d="M104 0v991v1q0 24 20.5 28t145.5 4v-868h238v835q0 25 21 29t145 4v-868h237v835q0 25 21.5 29t144.5 4v-991v-3q0 -23 -20 -26.5t-142 -3.5h-811z" />
<glyph unicode="&#x449;" horiz-adv-x="1214" d="M104 0v991v1q0 24 20.5 28t145.5 4v-868h238v835q0 25 20.5 29t143.5 4v-868h237v835q0 25 21 29t143 4v-868h107v-432q0 -31 -19.5 -39.5t-79.5 -8.5q-40 172 -49 324h-928z" />
<glyph unicode="&#x44a;" horiz-adv-x="870" d="M27 881q0 115 5 129t25 14h351v-401h106q81 0 137 -11.5t100.5 -41t66.5 -85t22 -137.5q0 -86 -22 -150t-55.5 -100.5t-84.5 -59t-98.5 -30t-108.5 -8.5h-221v881h-223zM408 133l86 -2q78 0 119.5 46t41.5 165q0 52 -10.5 84.5t-35 47.5t-50.5 19.5t-70 4.5q-20 0 -47 -1 t-34 -1v-363z" />
<glyph unicode="&#x44b;" horiz-adv-x="1083" d="M104 0v950q0 23 2.5 34t9.5 21t27 13t45.5 4.5t75.5 1.5v-401h107q80 0 135.5 -11.5t100 -41t66 -85t21.5 -137.5q0 -75 -15 -133t-44 -95t-63.5 -61.5t-82 -37t-90 -17t-96.5 -4.5h-199zM264 133l84 -2q78 0 121 46t43 165q0 52 -10.5 84.5t-35 47.5t-50.5 19.5t-70 4.5 l-82 -2v-363zM821 0v948q0 54 29.5 65t138.5 11v-991q0 -25 -21.5 -29t-146.5 -4z" />
<glyph unicode="&#x44c;" horiz-adv-x="724" d="M104 0v950q0 23 2.5 34t9.5 21t27 13t45.5 4.5t75.5 1.5v-401h107q80 0 135.5 -11.5t100 -41t66 -85t21.5 -137.5q0 -75 -15 -133t-44 -95t-63.5 -61.5t-82 -37t-90 -17t-96.5 -4.5h-199zM264 133l84 -2q78 0 121 46t43 165q0 52 -10.5 84.5t-35 47.5t-50.5 19.5t-70 4.5 l-82 -2v-363z" />
<glyph unicode="&#x44d;" horiz-adv-x="641" d="M41 78q0 41 16 94q29 -19 82 -35t94 -16q88 0 130.5 69.5t48.5 249.5h-285q0 97 5.5 119.5t31.5 22.5h250q-2 85 -15 147t-30.5 95t-43.5 52.5t-47 24t-49 4.5q-91 0 -166 -43q-18 49 -18 90q0 51 56 75t145 24q58 0 101 -9t90.5 -41.5t78 -89t50.5 -158t20 -241.5 q0 -158 -20.5 -264.5t-63 -166t-100 -84t-140.5 -24.5q-94 0 -157.5 32t-63.5 73z" />
<glyph unicode="&#x44e;" horiz-adv-x="1101" d="M104 0v991q0 25 20 29t140 4v-442h131q20 462 330 462q83 0 140 -24t98 -83t60 -162.5t19 -258.5q0 -279 -84.5 -407.5t-252.5 -128.5q-62 0 -105 9.5t-83 38t-64 79.5t-39.5 134t-18.5 201h-131v-409v-2q0 -23 -20 -27t-140 -4zM567 508q0 -101 6.5 -172t17.5 -114 t29.5 -67t39 -32t49.5 -8q50 0 83.5 32.5t54.5 123.5t21 245q0 161 -17.5 248.5t-47.5 116t-84 28.5q-36 0 -62 -18t-47.5 -61.5t-32 -123.5t-10.5 -198z" />
<glyph unicode="&#x44f;" horiz-adv-x="770" d="M53 -2l58 260q15 69 47 112t92 74q-73 27 -124.5 99.5t-51.5 189.5q0 291 362 291h199q14 0 21.5 -7t8.5 -15l1 -7v-995q-121 0 -142.5 4.5t-21.5 30.5v379h-88q-102 0 -138 -172l-47 -215q-3 -23 -14 -29t-57 -6q-50 0 -105 6zM252 725q0 -176 141 -176q35 0 109 4v330 q-70 4 -105 4q-73 0 -109 -37.5t-36 -124.5z" />
<glyph unicode="&#x450;" horiz-adv-x="739" d="M61 459q0 148 21 257t54 170.5t83 98.5t97 48t108 11q260 0 260 -327q0 -164 -22 -266q-165 -33 -431 -33q6 -160 50.5 -219.5t142.5 -59.5q120 0 233 66q15 -49 15 -113q0 -47 -83.5 -79.5t-199.5 -32.5q-61 0 -107.5 11t-89.5 42.5t-70.5 83.5t-44 138.5t-16.5 203.5z M207 1341q7 43 29 84t47 41q8 0 55.5 -36.5t112 -95.5t106.5 -109q-1 -4 -3 -10t-8 -22t-13 -28t-17.5 -22t-21.5 -10q-56 31 -159.5 105.5t-127.5 102.5zM231 551q187 -5 283 22q10 46 10 123q-2 114 -26.5 158.5t-91.5 44.5q-35 0 -62.5 -15.5t-52 -53t-40 -108 t-20.5 -171.5z" />
<glyph unicode="&#x451;" horiz-adv-x="739" d="M61 459q0 148 21 257t54 170.5t83 98.5t97 48t108 11q260 0 260 -327q0 -164 -22 -266q-165 -33 -431 -33q6 -160 50.5 -219.5t142.5 -59.5q120 0 233 66q15 -49 15 -113q0 -47 -83.5 -79.5t-199.5 -32.5q-61 0 -107.5 11t-89.5 42.5t-70.5 83.5t-44 138.5t-16.5 203.5z M164 1294q0 55 22.5 86t67.5 31q44 0 62 -25.5t18 -87.5q-3 -127 -92 -127q-81 3 -78 123zM231 551q187 -5 283 22q10 46 10 123q-2 114 -26.5 158.5t-91.5 44.5q-35 0 -62.5 -15.5t-52 -53t-40 -108t-20.5 -171.5zM406 1294q3 117 92 117q44 0 61.5 -25.5t15.5 -87.5 q0 -60 -23 -93.5t-65 -33.5q-42 2 -61.5 29.5t-19.5 93.5z" />
<glyph unicode="&#x452;" horiz-adv-x="808" d="M-41 1253q-1 32 17 52t49 20h75v105q0 54 27.5 64.5t136.5 10.5v-180h285q16 -27 16 -61q0 -33 -17 -53.5t-46 -20.5h-238v-225q45 39 107 59t123 20q124 0 170.5 -66.5t48.5 -238.5v-434q-3 -365 -76.5 -518.5t-265.5 -153.5q-74 0 -124 32t-50 73q0 36 18 72 q75 -21 133 -21q49 0 82 17t55.5 52t35 98.5t17.5 145t5 203.5v387q0 114 -25 156.5t-96 42.5q-93 0 -158 -55v-803q0 -25 -20.5 -29t-143.5 -4v1190h-129q-12 30 -12 63z" />
<glyph unicode="&#x453;" horiz-adv-x="583" d="M104 0v977q0 30 13.5 38.5t50.5 8.5h395q0 -96 -6.5 -117.5t-38.5 -21.5h-248v-848q0 -28 -21 -32.5t-145 -4.5zM174 1239q65 73 163 156.5t112 83.5q27 0 48.5 -41t26.5 -84q-25 -28 -128.5 -103t-157.5 -104q-16 0 -32 23t-24 46z" />
<glyph unicode="&#x454;" horiz-adv-x="630" d="M55 537q0 136 22.5 234t54 149.5t80.5 81t87 36t88 6.5q93 0 148 -30.5t55 -75.5q0 -25 -21 -82q-71 43 -155 43q-30 0 -51.5 -4.5t-48 -22.5t-43 -50.5t-29.5 -93.5t-15 -146h240q27 0 33 -22t6 -120h-277q6 -179 49 -249t130 -70q85 0 165 51q17 -63 17 -100 q0 -34 -63.5 -66.5t-135.5 -32.5q-69 0 -119 14t-93 50.5t-69 100t-40.5 162.5t-14.5 237z" />
<glyph unicode="&#x455;" horiz-adv-x="708" d="M61 82q0 49 31 96q83 -49 203 -49q80 0 124 32t44 93q0 90 -82 162l-199 170q-119 96 -119 217q0 111 85 176t251 65q74 0 127.5 -11.5t79.5 -30.5t37.5 -36.5t11.5 -35.5q0 -42 -34 -84q-89 55 -203 55q-74 0 -118 -26.5t-44 -73.5q0 -31 16.5 -59t65.5 -68l190 -154 q68 -65 95.5 -122.5t27.5 -133.5q0 -135 -91 -209.5t-249 -74.5q-113 0 -181.5 26.5t-68.5 75.5z" />
<glyph unicode="&#x456;" horiz-adv-x="358" d="M90 1294q2 58 25 90.5t69 32.5q47 0 65.5 -27t18.5 -92q-3 -131 -94 -131q-42 0 -63 29t-21 98zM96 0v948q0 54 29 65t137 11v-991q0 -25 -21 -29t-145 -4z" />
<glyph unicode="&#x457;" horiz-adv-x="358" d="M-27 1294q0 55 22.5 86t67.5 31q44 0 62 -25.5t18 -87.5q0 -61 -23 -94t-67 -33q-41 2 -61 29.5t-19 93.5zM96 0v948q0 54 29 65t137 11v-991q0 -25 -21 -29t-145 -4zM215 1294q3 117 92 117q45 0 62.5 -25.5t17.5 -87.5q-3 -127 -90 -127q-41 2 -61.5 29.5t-20.5 93.5z " />
<glyph unicode="&#x458;" horiz-adv-x="376" d="M-211 -293q0 52 25 84q77 -41 174 -41q76 0 99.5 44t23.5 157v997q0 54 28 65t135 11v-1098q0 -73 -11 -128t-39 -102t-82.5 -72t-133.5 -25q-219 0 -219 108zM100 1294q2 58 25.5 90.5t69.5 32.5q47 0 65.5 -27t18.5 -92q-2 -62 -26 -96.5t-69 -34.5q-42 0 -63 29 t-21 98z" />
<glyph unicode="&#x459;" horiz-adv-x="1144" d="M-10 86q0 23 4 37q107 1 143 167.5t68 686.5q1 23 8.5 31t35 12t97.5 4h354v-401h107q80 0 135.5 -11.5t100 -41t66 -85t21.5 -137.5q0 -89 -23 -154.5t-58 -102t-89 -58t-104.5 -27.5t-116.5 -6h-207v885h-172q-29 -485 -89 -689t-191 -204q-90 0 -90 94zM700 133l84 -2 q78 0 121 46t43 165q0 52 -10.5 84.5t-35 47.5t-50.5 19.5t-70 4.5q-59 0 -82 -2v-363z" />
<glyph unicode="&#x45a;" horiz-adv-x="1167" d="M104 0v991v3q0 23 20.5 26.5t145.5 3.5v-401h289v327q0 23 2.5 34t9 21t26.5 13t46.5 4.5t77.5 1.5v-401h108q80 0 135.5 -11.5t100 -41t66.5 -85t22 -137.5q0 -75 -15 -133t-44 -95t-63.5 -61.5t-82 -37t-90 -17t-96.5 -4.5h-203v487h-289v-454v-2q0 -23 -20.5 -27 t-145.5 -4zM721 133l86 -2q78 0 120 46t42 165q0 52 -10.5 84.5t-35 47.5t-50 19.5t-68.5 4.5q-21 0 -49 -1t-35 -1v-363z" />
<glyph unicode="&#x45b;" horiz-adv-x="786" d="M-41 1253q2 33 19 52.5t47 19.5h75v105q0 54 27.5 64.5t136.5 10.5v-180h285q16 -27 16 -61q0 -33 -17 -53.5t-46 -20.5h-238v-225q45 39 107.5 59t124.5 20q126 0 169.5 -64.5t43.5 -205.5v-741q0 -24 -23 -28.5t-145 -4.5v729q0 78 -25.5 120t-95.5 42q-90 0 -156 -55 v-803q0 -25 -20.5 -29t-143.5 -4v1190h-129q-12 30 -12 63z" />
<glyph unicode="&#x45c;" horiz-adv-x="747" d="M104 0v995q0 22 20 25.5t142 3.5v-403h60q90 0 118 104l84 291q49 10 101 10q45 0 56.5 -7.5t4.5 -31.5l-96 -289q-35 -99 -107 -137q59 -29 99 -96t53 -160l53 -274q2 -21 -10.5 -28t-54.5 -7q-47 0 -103 6l-53 283q-15 104 -50 147t-104 43h-51v-446q0 -22 -20 -25.5 t-142 -3.5zM225 1239q63 73 162 156.5t113 83.5q27 0 47.5 -40t27.5 -85q-24 -27 -128 -102t-158 -105q-16 0 -32 23t-24 46z" />
<glyph unicode="&#x45d;" horiz-adv-x="843" d="M104 0v993q0 22 24 26.5t132 4.5v-469q0 -46 -14 -169t-15 -138q138 300 162 344l199 393q13 28 34.5 33.5t112.5 5.5v-993q0 -22 -21 -26.5t-132 -4.5v444q0 47 13 179.5t15 169.5q-149 -333 -165 -363l-197 -391q-15 -29 -35.5 -34t-112.5 -5zM262 1341q5 43 27 84 t49 41q8 0 55.5 -36.5t111.5 -95.5t107 -109q-1 -4 -3 -10t-8.5 -22t-13.5 -28t-17.5 -22t-20.5 -10q-56 30 -159.5 104.5t-127.5 103.5z" />
<glyph unicode="&#x45e;" horiz-adv-x="712" d="M31 979q-8 33 14 39t148 6l110 -492q15 -72 28.5 -162.5t20.5 -145.5l6 -54q21 199 52 365l92 442q4 35 27 41t149 6l-252 -1079q-44 -183 -102.5 -262.5t-149.5 -81.5q-110 0 -90 133q78 0 120 47t77 180zM66 1372q0 61 104 88q21 -91 57.5 -136.5t110.5 -45.5 q68 0 100 37t56 121q9 19 34 15t53.5 -26.5t34.5 -46.5q-21 -53 -42.5 -88.5t-54 -65.5t-79 -44.5t-108.5 -14.5q-116 0 -187 62.5t-79 144.5z" />
<glyph unicode="&#x45f;" horiz-adv-x="806" d="M104 0v991q0 25 21 29t145 4v-868h267v835q0 21 10 26q21 7 155 7v-985q0 -26 -11 -32.5t-62 -6.5h-164l-14 -276q-3 -43 -70 -43q-45 0 -45 12l-19 307h-213z" />
<glyph unicode="&#x490;" horiz-adv-x="628" d="M117 0v1401q0 4 1 9.5t9 14.5t23 9h329q12 110 47 233q54 0 72 -8.5t18 -38.5v-186q0 -103 -3.5 -122.5t-26.5 -19.5h-305v-1259q0 -4 -1 -9.5t-8.5 -14.5t-21.5 -9h-133z" />
<glyph unicode="&#x491;" horiz-adv-x="565" d="M104 0v977q0 30 13.5 38.5t50.5 8.5h250q18 165 47 256q61 0 79.5 -11t18.5 -50v-195q0 -96 -6.5 -117.5t-38.5 -21.5h-248v-848q0 -28 -21 -32.5t-145 -4.5z" />
<glyph unicode="&#x49a;" horiz-adv-x="872" d="M117 0v1401q0 25 20.5 29t145.5 4v-586h75q42 0 77.5 40.5t53.5 117.5l101 417q63 13 106 13q38 0 52 -6.5t14 -24.5q0 -11 -2 -19l-109 -409q-40 -143 -125 -193q70 -38 114.5 -124.5t59.5 -210.5l54 -293h114v-432q0 -31 -19.5 -39.5t-80.5 -8.5q-41 174 -47 320 l-139 6l-60 420q-29 268 -174 268h-65v-657q0 -25 -21 -29t-145 -4z" />
<glyph unicode="&#x49b;" horiz-adv-x="765" d="M104 0v995q0 22 21 25.5t147 3.5v-391h62q34 0 60 14t52 53.5t48.5 117t42.5 196.5q59 12 102 12q45 0 58.5 -8.5t7.5 -34.5q-51 -192 -80 -259q-51 -119 -125 -153q167 -76 200 -415h74v-432q0 -31 -19 -39.5t-79 -8.5q-40 172 -49 320l-103 6q-3 126 -15.5 215.5 t-29 139t-42.5 77t-50 34.5t-59 7h-56v-446q0 -22 -21 -25.5t-147 -3.5z" />
<glyph unicode="&#x4a2;" horiz-adv-x="888" d="M90 0v1401v1q0 24 20.5 28t145.5 4v-584h328v551v1q0 24 20.5 28t143.5 4v-1278h104v-432q0 -31 -19.5 -39.5t-80.5 -8.5q-42 195 -47 324h-121v694h-328v-661v-1q0 -24 -20.5 -28t-145.5 -4z" />
<glyph unicode="&#x4a3;" horiz-adv-x="845" d="M104 0v991v2q0 23 21 27t147 4v-440h271v407q0 25 21.5 29t144.5 4v-868h104v-432q0 -31 -19.5 -39.5t-80.5 -8.5q-42 195 -47 324h-123v440h-271v-407v-1q0 -24 -21 -28t-147 -4z" />
<glyph unicode="&#x4b0;" horiz-adv-x="745" d="M12 1407q-5 17 6 21q17 6 181 6l82 -281q30 -97 63.5 -240.5t38.5 -189.5q5 45 39.5 189.5t64.5 240.5l72 250q6 23 28.5 27t149.5 4l-276 -838v-33h176q14 -35 14 -71q0 -37 -17 -60.5t-46 -23.5h-127v-375v-1q0 -24 -20.5 -28t-145.5 -4v408h-180q-13 38 -13 75 q2 36 20 58t48 22h125v25z" />
<glyph unicode="&#x4b1;" horiz-adv-x="704" d="M33 997q0 19 30 23t148 4l65 -315q19 -95 40 -223.5t32 -209.5l12 -81h5q36 301 81 516l56 276q4 28 27 32.5t147 4.5l-236 -997v-27h183q16 -33 16 -72q-2 -38 -18.5 -61t-45.5 -23h-135v-200v-5q0 -18 -10 -22q-17 -6 -151 -6v233h-177q-12 35 -12 74q0 37 18 59.5 t50 22.5h121v31l-242 942q-4 20 -4 24z" />
<glyph unicode="&#x2000;" horiz-adv-x="944" />
<glyph unicode="&#x2001;" horiz-adv-x="1888" />
<glyph unicode="&#x2002;" horiz-adv-x="944" />
<glyph unicode="&#x2003;" horiz-adv-x="1888" />
<glyph unicode="&#x2004;" horiz-adv-x="629" />
<glyph unicode="&#x2005;" horiz-adv-x="472" />
<glyph unicode="&#x2006;" horiz-adv-x="314" />
<glyph unicode="&#x2007;" horiz-adv-x="314" />
<glyph unicode="&#x2008;" horiz-adv-x="236" />
<glyph unicode="&#x2009;" horiz-adv-x="377" />
<glyph unicode="&#x200a;" horiz-adv-x="104" />
<glyph unicode="&#x2010;" horiz-adv-x="569" d="M76 506q0 87 5.5 115t29.5 28h383q0 -87 -5 -115t-28 -28h-385z" />
<glyph unicode="&#x2011;" horiz-adv-x="569" d="M76 506q0 87 5.5 115t29.5 28h383q0 -87 -5 -115t-28 -28h-385z" />
<glyph unicode="&#x2012;" horiz-adv-x="569" d="M76 506q0 87 5.5 115t29.5 28h383q0 -87 -5 -115t-28 -28h-385z" />
<glyph unicode="&#x2013;" horiz-adv-x="868" d="M76 506q0 87 5.5 115t29.5 28h682q0 -87 -5 -115t-28 -28h-684z" />
<glyph unicode="&#x2014;" horiz-adv-x="1433" d="M12 506q0 87 5 115t28 28h1376q0 -88 -4.5 -115.5t-27.5 -27.5h-1377z" />
<glyph unicode="&#x2018;" horiz-adv-x="356" d="M70 1298q0 69 30.5 149.5t66 130.5t54.5 50q55 0 66 -47q-43 -82 -51 -197q47 -31 47 -100q0 -45 -29 -75.5t-74 -30.5q-110 0 -110 120z" />
<glyph unicode="&#x2019;" horiz-adv-x="356" d="M70 1219q20 37 31.5 75.5t14 61t5.5 61.5q-47 27 -47 99q0 46 29 76t73 30q113 0 113 -121q0 -69 -31 -149.5t-67.5 -130.5t-55.5 -50q-51 0 -65 48z" />
<glyph unicode="&#x201a;" horiz-adv-x="348" d="M70 -186q43 77 51 196q-47 27 -47 101q0 45 29 75.5t73 30.5q113 0 113 -121q0 -69 -31 -149.5t-67.5 -130t-55.5 -49.5q-52 0 -65 47z" />
<glyph unicode="&#x201c;" horiz-adv-x="663" d="M70 1298q0 69 30.5 149.5t66 130.5t54.5 50q55 0 66 -47q-43 -82 -51 -197q47 -31 47 -100q0 -45 -29 -75.5t-74 -30.5q-110 0 -110 120zM377 1298q0 69 30.5 149.5t66 130.5t54.5 50q55 0 66 -47q-43 -77 -51 -197q47 -31 47 -100q0 -45 -29 -75.5t-74 -30.5 q-110 0 -110 120z" />
<glyph unicode="&#x201d;" horiz-adv-x="663" d="M70 1219q20 37 31.5 75.5t14 61t5.5 61.5q-47 27 -47 99q0 46 29 76t73 30q113 0 113 -121q0 -69 -31 -149.5t-67.5 -130.5t-55.5 -50q-51 0 -65 48zM377 1219q20 37 31.5 75.5t14 61t5.5 61.5q-47 27 -47 99q0 46 29 76t73 30q113 0 113 -121q0 -69 -31 -149.5 t-67.5 -130.5t-55.5 -50q-54 0 -65 48z" />
<glyph unicode="&#x201e;" horiz-adv-x="657" d="M70 -186q43 77 51 196q-47 27 -47 101q0 45 29 75.5t73 30.5q113 0 113 -121q0 -69 -31 -149.5t-67.5 -130t-55.5 -49.5q-52 0 -65 47zM377 -186q43 77 51 196q-47 27 -47 101q0 45 29 75.5t73 30.5q113 0 113 -121q0 -69 -31 -149.5t-67.5 -130t-55.5 -49.5 q-54 0 -65 47z" />
<glyph unicode="&#x2026;" horiz-adv-x="1067" d="M74 104q0 48 30 82.5t82 34.5q115 0 115 -117q0 -51 -31 -83.5t-84 -32.5q-61 0 -86.5 29t-25.5 87zM420 104q0 48 30 82.5t82 34.5q115 0 115 -117q0 -51 -31 -83.5t-84 -32.5q-61 0 -86.5 29t-25.5 87zM768 104q0 48 30.5 82.5t82.5 34.5q114 0 114 -117 q0 -51 -30.5 -83.5t-83.5 -32.5q-61 0 -87 29t-26 87z" />
<glyph unicode="&#x202f;" horiz-adv-x="377" />
<glyph unicode="&#x2039;" horiz-adv-x="505" d="M37 512q0 31 74.5 159t149.5 241l75 112q28 0 52.5 -21t35.5 -42l10 -21q0 -35 -60 -142t-120 -196l-61 -90q27 -38 68 -96.5t109 -172t68 -147.5q-1 -4 -4 -10.5t-12.5 -23t-19.5 -29t-26.5 -23t-33.5 -10.5q-12 18 -33 48t-73.5 109.5t-92.5 144t-73 127t-33 83.5z" />
<glyph unicode="&#x203a;" horiz-adv-x="505" d="M68 94q0 34 61 138.5t123 191.5l61 88q-27 39 -67 99.5t-107 177t-67 151.5q0 25 24.5 46t49.5 30l24 8l32 -48t72 -110t91 -145t71.5 -127t32.5 -82q0 -33 -75.5 -161t-151.5 -239l-76 -112q-4 1 -10.5 3t-23.5 10.5t-30 18t-23.5 26.5t-10.5 36z" />
<glyph unicode="&#x205f;" horiz-adv-x="472" />
<glyph unicode="&#x20ac;" d="M33 406q0 79 12 108t53 29h111v18q0 71 6 135h-182q0 79 12 108.5t53 29.5h131q16 100 47.5 175.5t68 118.5t83.5 69.5t89 35t91 8.5q53 0 94 -9t63 -22t33 -26.5t11 -24.5q0 -76 -27 -110q-17 13 -57 27t-78 14q-36 0 -67 -9.5t-65.5 -35t-62 -79t-44.5 -132.5h294 q0 -80 -12 -109t-53 -29h-248q-4 -78 -4 -129v-24h250q0 -78 -12.5 -107.5t-53.5 -29.5h-178q7 -68 20.5 -116.5t30.5 -77t42 -44.5t49.5 -21.5t58.5 -5.5q112 0 180 54q25 -48 25 -107q0 -35 -70.5 -70.5t-165.5 -35.5q-61 0 -105.5 9t-88.5 35.5t-73 72.5t-50 123t-29 184 h-182z" />
<glyph unicode="&#x2122;" horiz-adv-x="1032" d="M61 1354v61q0 8 4.5 12.5t9.5 5.5l5 1h389v-60q0 -9 -4.5 -14t-8.5 -6h-5h-138v-553q0 -14 -10.5 -16.5t-73.5 -2.5v572h-168zM520 782v633q1 19 21 19h57l90 -260l39 -111q23 73 33 108l84 244q5 19 18 19h66v-633q0 -14 -11.5 -16.5t-74.5 -2.5l2 228q2 62 16 239 q-44 -146 -51 -164l-57 -153q-3 -8 -11 -8h-43l-59 161l-51 166q1 -10 4.5 -59.5t7 -101t4.5 -78.5v-211q0 -14 -11.5 -16.5t-72.5 -2.5z" />
<glyph unicode="&#x25fc;" horiz-adv-x="1024" d="M0 0v1024h1024v-1024h-1024z" />
</font>
</defs>
</svg>
