<?xml version="1.0" standalone="no"?>
<!DOCTYPE svg PUBLIC "-//W3C//DTD SVG 1.1//EN" "http://www.w3.org/Graphics/SVG/1.1/DTD/svg11.dtd" >
<svg xmlns="http://www.w3.org/2000/svg">
<metadata>
This is a custom SVG font generated by IcoMoon.
<iconset grid="16"></iconset>
</metadata>
<defs>
<font id="americanaura" horiz-adv-x="512" >
<font-face units-per-em="512" ascent="480" descent="-32" />
<missing-glyph horiz-adv-x="512" />
<glyph unicode="&#xe000;" d="M 407.962,250.214c 60.186,17.792, 95.462,81.562, 70.118,82.842c-65.05,3.302-120.678,34.816-158.157,58.368
	c-3.968,2.611-8.013,5.094-12.186,7.424l0.00-146.56 c0.00-48.461-29.312-87.066-62.541-103.117c-48.256-23.296-102.016-8.678-120.09,32.666
	c-18.074,41.344, 6.40,93.747, 54.656,117.018c 26.701,12.877, 55.04,14.131, 78.131,5.709L 257.894,418.253 C 243.302,421.734, 228.122,423.68, 212.48,423.68
	c-108.877,0.00-197.146-89.395-197.146-199.68c0.00-110.285, 88.269-199.68, 197.146-199.68c 108.902,0.00, 197.146,89.395, 197.146,199.68
	C 409.626,232.883, 409.062,241.638, 407.962,250.214z"  />
<glyph unicode="&#xe001;" d="M 256.00,469.76c-135.731,0.00-245.76-110.029-245.76-245.76c0.00-62.054, 22.989-118.733, 60.928-161.946c 38.451,38.451, 91.11,60.032, 151.552,58.086
	c 77.107-2.509, 137.984-39.014, 172.877-98.406C 459.725,66.074, 501.76,140.109, 501.76,224.00C 501.76,359.731, 391.731,469.76, 256.00,469.76z M 376.141,136.397
	c-4.326-7.168-13.594-9.37-20.736-5.043c-56.934,34.765-128.512,42.624-212.838,23.373c-8.09-1.869-16.23,3.20-18.048,11.366
	c-1.869,8.064, 3.174,16.205, 11.315,18.048c 92.288,21.094, 171.443,11.981, 235.29-26.982C 378.24,152.806, 380.518,143.514, 376.141,136.397z
	 M 405.811,206.106c-5.453-8.909-17.101-11.674-25.958-6.195c-65.126,40.013-164.403,51.61-241.434,28.237c-10.01-3.021-20.557,2.637-23.552,12.57
	c-3.021,10.01, 2.611,20.557, 12.57,23.552c 87.987,26.752, 197.376,13.798, 272.179-32.154C 408.499,226.586, 411.29,215.014, 405.811,206.106z
	 M 408.346,278.323C 330.266,324.736, 201.472,328.96, 126.925,306.355C 114.944,302.694, 102.298,309.453, 98.662,321.434C 95.053,333.414, 101.811,346.112, 113.741,349.696
	c 85.606,25.984, 227.84,20.966, 317.722-32.41c 10.778-6.40, 14.336-20.301, 7.962-31.078C 432.998,275.482, 419.123,271.949, 408.346,278.323z M 221.158,46.643
	c-34.586,1.101-63.36-12.365-84.378-37.581C 172.083-10.573, 212.736-21.76, 256.00-21.76c 20.864,0.00, 41.114,2.611, 60.467,7.501
	C 297.933,23.808, 265.60,45.21, 221.158,46.643z"  />
<glyph unicode="&#xe002;" d="M 389.12,224.00c0.00-73.523-59.622-133.12-133.12-133.12c-73.523,0.00-133.12,59.597-133.12,133.12c0.00,8.755, 0.87,17.306, 2.509,25.60L 35.84,249.60 l0.00-176.947 
	c0.00-37.99, 30.771-68.813, 68.813-68.813l 302.694,0.00 c 37.99,0.00, 68.813,30.797, 68.813,68.813L 476.16,249.60 l-89.523,0.00 C 388.25,241.306, 389.12,232.755, 389.12,224.00z M 407.347,444.16
	L 104.653,444.16 C 66.637,444.16, 35.84,413.338, 35.84,375.347L 35.84,300.80 l 111.462,0.00 C 171.392,334.848, 211.098,357.12, 256.00,357.12s 84.608-22.272, 108.698-56.32L 476.16,300.80 L 476.16,375.347 
	C 476.16,413.338, 445.338,444.16, 407.347,444.16z M 441.011,359.168c0.00-6.784-5.53-12.288-12.288-12.288l-36.838,0.00 c-6.758,0.00-12.288,5.53-12.288,12.288L 379.597,396.032 
	c0.00,6.784, 5.555,12.288, 12.288,12.288l 36.838,0.00 c 6.784,0.00, 12.288-5.53, 12.288-12.288L 441.011,359.168 z M 337.92,224.00c0.00,45.261-36.685,81.92-81.92,81.92S 174.08,269.261, 174.08,224.00
	s 36.685-81.92, 81.92-81.92S 337.92,178.739, 337.92,224.00z"  />
<glyph unicode="&#xe006;" d="M 220.57,141.363C 207.13,70.886, 190.72,3.302, 142.08-32.00c-15.002,106.547, 22.042,186.547, 39.245,271.488
	c-29.338,49.408, 3.533,148.787, 65.434,124.288c 76.16-30.131-65.946-183.629, 29.44-202.803c 99.61-20.019, 140.262,172.80, 78.515,235.494
	C 265.472,487.04, 94.925,398.566, 115.917,268.954c 5.094-31.693, 37.837-41.318, 13.082-85.043c-57.114,12.646-74.163,57.702-71.962,117.76
	C 60.57,399.949, 145.357,468.762, 230.40,478.285c 107.571,12.058, 208.512-39.475, 222.413-140.646c 15.693-114.176-48.512-237.85-163.558-228.941
	C 258.099,111.078, 245.018,126.515, 220.57,141.363z"  />
<glyph unicode="&#xe004;" d="M 354.469,400.047c 20.344,0.00, 39.219-8.125, 53.156-22.844c0.00,0.00, 18.375-17.719, 20.25-62.375
	c0.00-110.813-82.781-266.875-266.844-266.875c-12.438,0.00-24.813,0.875-37.031,2.594c 18.094,8.031, 35.25,18.375, 51.25,30.906
	l 70.875,55.531l-90.031,1.656c-14.594,0.25-28.375,4.844-39.875,12.688l 127.406,34.781l-132.50,26.656
	c-17.969,3.594-33.313,13.75-43.781,27.813l 111.375-3.438L 85.938,299.172c-17.094,11.438-28.406,29.313-31.594,49.25
	c 54.875-46.125, 123.75-73.688, 196.219-77.313l 42.344-2.125l-9.563,41.313c-1.281,5.438-1.906,11.063-1.906,16.719
	C 281.438,367.297, 314.188,400.047, 354.469,400.047 M 354.469,432.047c-58.00,0.00-105.031-47.031-105.031-105.031
	c0.00-8.25, 0.938-16.25, 2.719-23.938c-87.313,4.375-164.719,46.188-216.50,109.75c-9.063-15.531-14.219-33.563-14.219-52.813
	c0.00-36.438, 18.531-68.594, 46.719-87.438c-17.219,0.531-33.406,5.281-47.594,13.125c0.00-0.438,0.00-0.875,0.00-1.313
	c0.00-50.875, 36.219-93.344, 84.25-103.00c-8.813-2.406-18.094-3.688-27.656-3.688c-6.781,0.00-13.344,0.656-19.781,1.906
	c 13.375-41.75, 52.188-72.125, 98.125-72.969c-35.938-28.156-81.219-44.969-130.438-44.969c-8.469,0.00-16.844,0.50-25.063,1.469
	c 46.50-29.781, 101.688-47.188, 161.031-47.188c 193.188,0.00, 298.844,160.063, 298.844,298.875c0.00,4.563-0.094,9.094-0.281,13.594
	c 20.531,14.813, 38.313,33.313, 52.406,54.375c-18.844-8.375-39.094-14.00-60.344-16.531c 21.688,13.00, 38.344,33.563, 46.188,58.094
	c-20.281-12.031-42.781-20.781-66.688-25.469C 412.00,419.297, 384.688,432.047, 354.469,432.047L 354.469,432.047z" />
<glyph unicode="&#xe00a;" d="M0.00,480.00L 128.00,480.00L 128.00,352.00L0.00,352.00zM 192.00,448.00L 512.00,448.00L 512.00,384.00L 192.00,384.00zM0.00,288.00L 128.00,288.00L 128.00,160.00L0.00,160.00zM 192.00,256.00L 512.00,256.00L 512.00,192.00L 192.00,192.00zM0.00,96.00L 128.00,96.00L 128.00-32.00L0.00-32.00zM 192.00,64.00L 512.00,64.00L 512.00,0.00L 192.00,0.00z" />
<glyph unicode="&#xe00b;" d="M 32.00,384.00L 480.00,384.00L 480.00,288.00L 32.00,288.00zM 32.00,256.00L 480.00,256.00L 480.00,160.00L 32.00,160.00zM 32.00,128.00L 480.00,128.00L 480.00,32.00L 32.00,32.00z" />
<glyph unicode="&#xe00c;" d="M 384.00,416.00 L 384.00,32.00 L 320.00,32.00 L 320.00,208.00 L 160.00,48.00 L 160.00,400.00 L 320.00,240.00 L 320.00,416.00 Z" />
<glyph unicode="&#xe00d;" d="M 128.00,32.00 L 128.00,416.00 L 192.00,416.00 L 192.00,240.00 L 352.00,400.00 L 352.00,48.00 L 192.00,208.00 L 192.00,32.00 Z" />
<glyph unicode="&#xe00e;" d="M 64.00,416.00L 224.00,416.00L 224.00,32.00L 64.00,32.00zM 288.00,416.00L 448.00,416.00L 448.00,32.00L 288.00,32.00z" />
<glyph unicode="&#xe00f;" d="M 96.00,416.00L 416.00,224.00L 96.00,32.00 z" />
<glyph unicode="&#xe010;" d="M 200.666,440.666 C 213.50,453.50 224.00,449.15 224.00,431.00 L 224.00,17.00 C 224.00-1.15 213.50-5.499 200.666,7.335 L 80.00,128.00 L 0.00,128.00 L 0.00,320.00 L 80.00,320.00 L 200.666,440.666 Z" />
<glyph unicode="&#xe011;" d="M 445.02,18.98c-6.143,0.00-12.284,2.343-16.971,7.029c-9.372,9.373-9.372,24.568,0.00,33.941
		C 471.868,103.771, 496.001,162.03, 496.001,224.00c0.00,61.969-24.133,120.229-67.952,164.049c-9.372,9.373-9.372,24.569,0.00,33.941
		c 9.372,9.372, 24.569,9.372, 33.941,0.00c 52.885-52.886, 82.011-123.20, 82.011-197.99c0.00-74.791-29.126-145.104-82.011-197.99
		C 457.304,21.323, 451.162,18.98, 445.02,18.98zM 359.765,64.235c-6.143,0.00-12.284,2.343-16.971,7.029c-9.372,9.372-9.372,24.568,0.00,33.941
		c 65.503,65.503, 65.503,172.085,0.00,237.588c-9.372,9.373-9.372,24.569,0.00,33.941c 9.372,9.371, 24.569,9.372, 33.941,0.00
		C 417.532,335.938, 440.00,281.696, 440.00,224.00c0.00-57.695-22.468-111.938-63.265-152.735C 372.049,66.578, 365.907,64.235, 359.765,64.235zM 274.51,109.49c-6.143,0.00-12.284,2.343-16.971,7.029c-9.373,9.373-9.373,24.568,0.00,33.941
		c 40.55,40.55, 40.55,106.529,0.00,147.078c-9.373,9.373-9.373,24.569,0.00,33.941c 9.373,9.372, 24.568,9.372, 33.941,0.00
		c 59.265-59.265, 59.265-155.696,0.00-214.961C 286.794,111.833, 280.652,109.49, 274.51,109.49zM 200.666,440.666 C 213.50,453.50 224.00,449.15 224.00,431.00 L 224.00,17.00 C 224.00-1.15 213.50-5.499 200.666,7.335 L 80.00,128.00 L 0.00,128.00 L 0.00,320.00 L 80.00,320.00 L 200.666,440.666 Z" horiz-adv-x="544" />
<glyph unicode="&#xe012;" d="M 445.98,222.898c-9.043,0.00-17.674-1.76-25.532-4.928C 415.195,275.149, 365.303,320.00, 304.448,320.00
		c-14.893,0.00-29.341-2.815-42.159-7.582c-4.98-1.851-6.289-3.76-6.289-7.458l0.00-201.357 c0.00-3.883, 3.12-7.117, 7.062-7.498
		C 263.23,96.088, 444.83,96.00, 446.007,96.00C 482.459,96.00, 512.00,124.408, 512.00,159.447S 482.433,222.898, 445.98,222.898zM 200.00,96.00L 216.00,96.00L 224.00,208.11L 216.00,320.00L 200.00,320.00L 192.00,208.11 	zM 152.00,96.00L 136.00,96.00L 128.00,177.375L 136.00,256.00L 152.00,256.00L 160.00,176.00 	zM 72.00,96.00L 88.00,96.00L 96.00,160.00L 88.00,224.00L 72.00,224.00L 64.00,160.00 	zM 8.00,128.00L 24.00,128.00L 32.00,160.00L 24.00,192.00L 8.00,192.00L0.00,160.00 	z" />
<glyph unicode="&#xe013;" d="M 409.79,73.186c-53.333,0.209-81.749,26.291-101.496,72.251l-5.649,12.541l-48.685,111.00
	c-16.146,39.293-56.211,65.836-101.417,65.836c-61.167,0.00-110.792-49.626-110.792-110.836c0.00-61.209, 49.624-110.834, 110.792-110.834
	c 42.669,0.00, 79.771,24.125, 98.291,59.50l 19.688-45.416c-27.956-34.085-70.438-55.792-117.977-55.792C 68.29,71.436,0.00,139.687,0.00,223.979
	c0.00,84.252, 68.29,152.586, 152.542,152.586c 63.583,0.00, 114.918-33.959, 141.00-94.126c 1.978-4.668, 27.579-64.543, 49.913-115.50
	c 13.834-31.541, 25.63-52.459, 63.878-53.752c 37.584-1.291, 63.378,21.584, 63.378,50.504c0.00,28.25-19.668,35.041-52.875,46.082
	c-59.691,19.667-90.503,39.417-90.503,86.751c0.00,46.168, 31.416,76.959, 82.457,76.959c 33.248,0.00, 57.253-14.793, 73.88-44.293
	l-32.628-16.666c-12.295,17.207-25.854,24.00-43.086,24.00c-23.956,0.00-41.063-16.668-41.063-38.833c0.00-31.461, 28.147-36.211, 67.503-49.127
	C 487.375,231.314, 512.00,211.604, 512.00,162.396C 512.001,110.728, 467.664,73.102, 409.79,73.186z" />
<glyph unicode="&#xe014;" d="M 287.935-32.00L 192.00-32.00 L 192.00,224.00 l-64.00,0.00 l0.00,88.225 l 64.00,0.029l-0.104,51.976C 191.896,436.206, 211.413,480.00, 296.195,480.00l 70.588,0.00 l0.00-88.242 l-44.115,0.00 
	c-33.016,0.00-34.603-12.328-34.603-35.342l-0.131-44.162l 79.345,0.00 l-9.352-88.225L 288.00,224.00L 287.935-32.00z" />
<glyph unicode="&#xe015;" d="M 279.533,448.00c0.00,0.00-100.478,0.00-133.97,0.00C 85.503,448.00, 28.978,402.497, 28.978,349.789c0.00-53.863, 40.941-97.333, 102.044-97.333
		c 4.249,0.00, 8.378,0.085, 12.421,0.376c-3.965-7.593-6.801-16.144-6.801-25.021c0.00-14.969, 8.052-27.105, 18.234-37.012
		c-7.693,0.00-15.121-0.224-23.226-0.224C 57.259,190.576,0.00,143.196,0.00,94.065c0.00-48.389, 62.771-78.657, 137.167-78.657
		c 84.812,0.00, 131.653,48.122, 131.653,96.514c0.00,38.80-11.448,62.036-46.843,87.067c-12.108,8.572-35.265,29.418-35.265,41.672
		c0.00,14.36, 4.098,21.434, 25.714,38.323c 22.156,17.312, 37.836,41.651, 37.836,69.958c0.00,33.703-15.01,66.549-43.186,77.386l 42.477,0.00 
		L 279.533,448.00z M 232.74,120.271c 1.063-4.486, 1.642-9.103, 1.642-13.814c0.00-39.10-25.196-69.655-97.487-69.655
		c-51.421,0.00-88.558,32.552-88.558,71.65c0.00,38.321, 46.063,70.222, 97.482,69.666c 12.00-0.127, 23.184-2.058, 33.335-5.345
		C 207.067,153.36, 227.092,142.392, 232.74,120.271z M 150.409,266.112c-34.519,1.032-67.318,38.613-73.276,83.93
		c-5.958,45.333, 17.185,80.021, 51.694,78.995c 34.505-1.037, 67.319-37.407, 73.279-82.729
		C 208.059,300.978, 184.911,265.079, 150.409,266.112zM 416.00,352.00L 416.00,448.00L 384.00,448.00L 384.00,352.00L 288.00,352.00L 288.00,320.00L 384.00,320.00L 384.00,224.00L 416.00,224.00L 416.00,320.00L 512.00,320.00L 512.00,352.00 	z" />
<glyph unicode="&#xe016;" d="M 512.00,382.791c-18.838-8.354-39.082-14.001-60.33-16.54c 21.686,13.00, 38.343,33.585, 46.186,58.115
	c-20.298-12.039-42.778-20.78-66.705-25.49c-19.16,20.415-46.461,33.17-76.673,33.17c-58.011,0.00-105.044-47.029-105.044-105.039
	c0.00-8.233, 0.929-16.25, 2.72-23.939c-87.30,4.382-164.701,46.20-216.509,109.753c-9.042-15.514-14.223-33.558-14.223-52.809
	c0.00-36.444, 18.544-68.596, 46.73-87.433c-17.219,0.546-33.416,5.271-47.577,13.139c-0.01-0.438-0.01-0.878-0.01-1.321
	c0.00-50.894, 36.209-93.348, 84.261-103.00c-8.813-2.40-18.094-3.686-27.674-3.686c-6.769,0.00-13.349,0.66-19.764,1.886
	c 13.368-41.73, 52.16-72.103, 98.126-72.948c-35.95-28.175-81.243-44.967-130.458-44.967c-8.479,0.00-16.84,0.497-25.058,1.47
	c 46.486-29.805, 101.701-47.197, 161.021-47.197c 193.211,0.00, 298.868,160.062, 298.868,298.872c0.00,4.554-0.103,9.084-0.305,13.59
	C 480.11,343.227, 497.918,361.727, 512.00,382.791z" />
<glyph unicode="&#xe017;" d="M 68.147,104.535c-37.598,0.00-68.146-30.667-68.146-68.038c0.00-37.577, 30.55-67.901, 68.146-67.901
		c 37.733,0.00, 68.247,30.324, 68.247,67.901C 136.393,73.868, 105.882,104.535, 68.147,104.535zM 0.078,306.035l0.00-98.129 c 63.892,0.00, 123.979-24.986, 169.229-70.256c 45.192-45.159, 70.141-105.518, 70.141-169.65l 98.561,0.00 
		C 338.008,154.41, 186.368,306.035, 0.078,306.035zM 0.194,480.00l0.00-98.178 c 227.891,0.00, 413.378-185.667, 413.378-413.822L 512.00-32.00 C 512.00,250.235, 282.373,480.00, 0.194,480.00z" />
<glyph unicode="&#xe018;" d="M 416.00,416.00L 96.00,416.00 c-52.80,0.00-96.00-43.20-96.00-96.00l0.00-192.00 c0.00-52.80, 43.20-96.00, 96.00-96.00l 320.00,0.00 c 52.80,0.00, 96.00,43.20, 96.00,96.00L 512.00,320.00 C 512.00,372.80, 468.80,416.00, 416.00,416.00z
	 M 192.00,96.00L 192.00,352.00 l 160.00-128.00L 192.00,96.00z" />
<glyph unicode="&#xe019;" d="M0.00,325.815l 20.797-27.272c0.00,0.00, 42.885,33.804, 57.18,16.901c 14.294-16.901, 68.868-220.978, 87.085-258.623
	c 15.90-33.015, 59.759-76.66, 107.857-45.491c 48.068,31.17, 207.92,167.643, 236.533,328.808
	c 28.59,161.113-192.36,127.363-215.765-13.005c 58.495,35.118, 89.718-14.269, 59.785-70.186
	c-29.879-55.862-57.18-92.296-71.476-92.296c-14.269,0.00-25.245,37.384-41.594,102.723c-16.899,67.551-16.796,189.23-87.058,175.435
	C 87.085,429.803,0.00,325.815,0.00,325.815z" />
<glyph unicode="&#xe01a;" d="M 400.00,272.00 C 364.71,272.00 336.00,243.29 336.00,208.00 C 336.00,172.71 364.71,144.00 400.00,144.00 C 435.29,144.00 464.00,172.71 464.00,208.00 C 464.00,243.29 435.29,272.00 400.00,272.00 Z M 400.00,320.00 L 400.00,320.00 C 461.855,320.00 512.00,269.856 512.00,208.00 C 512.00,146.145 461.855,96.00 400.00,96.00 C 338.145,96.00 288.00,146.145 288.00,208.00 C 288.00,269.856 338.145,320.00 400.00,320.00 ZM0.00,208.00A112.00,112.00 1620.00 1 1 224.00,208A112.00,112.00 1620.00 1 1 0.00,208z" />
<glyph unicode="&#xe01b;" d="M 96.00,448.00l0.00-384.00 l 384.00,0.00 L 480.00,448.00 L 96.00,448.00 z M 448.00,96.00L 128.00,96.00 L 128.00,416.00 l 320.00,0.00 L 448.00,96.00 zM 64.00,32.00L 64.00,352.00L 32.00,384.00L 32.00,0.00L 416.00,0.00L 384.00,32.00 	zM 214.627,137.373L 310.627,233.373L 384.00,160.00L 384.00,352.00L 192.00,352.00L 265.373,278.627L 169.373,182.627 	z" />
<glyph unicode="&#xe023;" d="M 480.00,64.00L 32.00,64.00L 32.00,384.00L 288.00,384.00L 288.00,416.00L0.00,416.00L0.00,32.00L 512.00,32.00L 512.00,192.00L 480.00,160.00 	zM 96.00,128.00c0.00,0.00, 64.00,96.00, 192.00,96.00c 25.00,0.00, 64.063,0.00, 64.063,0.00l0.00-95.938 L 512.00,272.031L 352.00,416.00l0.00-96.00 
		C 352.00,320.00, 160.00,288.00, 96.00,128.00zM 32.00,384.00L 288.00,384.00L 288.00,352.00L 32.00,352.00zM 32.00,352.00L 64.00,352.00L 64.00,64.00L 32.00,64.00zM 32.00,96.00L 480.00,96.00L 480.00,64.00L 32.00,64.00zM 448.00,96.00L 480.00,96.00L 480.00,160.00L 448.00,128.00 z" />
<glyph unicode="&#xe009;" d="M 192.00,160.00L 192.00,288.00L 320.00,224.00 	zM 480.00,416.00l0.00-32.00 l-32.00,0.00 l0.00,32.00 L 64.00,416.00 l0.00-32.00 L 32.00,384.00 l0.00,32.00 L0.00,416.00 l0.00-384.00 l 32.00,0.00 l0.00,32.00 l 32.00,0.00 l0.00-32.00 l 384.00,0.00 l0.00,32.00 l 32.00,0.00 l0.00-32.00 l 32.00,0.00 L 512.00,416.00 L 480.00,416.00 z M 64.00,128.00L 32.00,128.00 L 32.00,192.00 l 32.00,0.00 L 64.00,128.00 z
	 M 64.00,256.00L 32.00,256.00 L 32.00,320.00 l 32.00,0.00 L 64.00,256.00 z M 416.00,64.00L 96.00,64.00 L 96.00,384.00 l 320.00,0.00 L 416.00,64.00 z M 480.00,128.00l-32.00,0.00 L 448.00,192.00 l 32.00,0.00 L 480.00,128.00 z M 480.00,256.00l-32.00,0.00 L 448.00,320.00 l 32.00,0.00 L 480.00,256.00 z" />
<glyph unicode="&#xe008;" d="M 256.00,480.50C 114.609,480.50,0.00,365.891,0.00,224.50c0.00-141.375, 114.609-256.00, 256.00-256.00c 141.375,0.00, 256.00,114.625, 256.00,256.00
		C 512.00,365.891, 397.375,480.50, 256.00,480.50z M 256.00,0.50C 132.484,0.50, 32.00,101.00, 32.00,224.50C 32.00,348.016, 132.484,448.50, 256.00,448.50c 123.50,0.00, 224.00-100.484, 224.00-224.00
		C 480.00,101.00, 379.50,0.50, 256.00,0.50zM 256.00,384.50L 224.00,384.50L 224.00,224.50L 224.00,192.50L 256.00,192.50L 384.00,192.50L 384.00,224.50L 256.00,224.50 	z" />
<glyph unicode="&#xe005;" d="M 448.00,352.50L 448.00,448.50 L 128.00,448.50 l0.00-32.00 l-32.00,0.00 L 96.00,448.50 L0.00,448.50 l0.00-352.00 l 64.00,0.00 l0.00-96.00 l 96.00,0.00 l0.00,32.00 l 32.00,0.00 l0.00-32.00 l 320.00,0.00 L 512.00,352.50 L 448.00,352.50 z M 64.00,128.50L 32.00,128.50 L 32.00,416.50 l 32.00,0.00 l0.00-32.00 l 32.00,0.00 l 32.00,0.00 l 32.00,0.00 l0.00,32.00 
		l 256.00,0.00 l0.00-64.00 L 192.00,352.50 l0.00-32.00 l-32.00,0.00 l0.00,32.00 L 64.00,352.50 L 64.00,128.50 z M 480.00,32.50L 224.00,32.50 l0.00,32.00 l-32.00,0.00 l-32.00,0.00 l-32.00,0.00 l0.00-32.00 l-32.00,0.00 L 96.00,320.50 l 32.00,0.00 l0.00-32.00 l 32.00,0.00 l 32.00,0.00 l 32.00,0.00 l0.00,32.00 l 256.00,0.00 L 480.00,32.50 zM 288.00,256.50L 416.00,256.50L 416.00,224.50L 288.00,224.50zM 288.00,192.50L 416.00,192.50L 416.00,160.50L 288.00,160.50zM 288.00,128.50L 416.00,128.50L 416.00,96.50L 288.00,96.50zM 160.00,256.50L 192.00,256.50L 192.00,224.50L 160.00,224.50zM 160.00,192.50L 192.00,192.50L 192.00,160.50L 160.00,160.50zM 160.00,128.50L 192.00,128.50L 192.00,96.50L 160.00,96.50z" />
<glyph unicode="&#xe007;" d="M 416.00,384.00L 160.00,384.00 l0.00-128.00 l 256.00,0.00 L 416.00,384.00 z M 384.00,288.00L 192.00,288.00 L 192.00,352.00 l 192.00,0.00 L 384.00,288.00 zM 160.00,224.00L 288.00,224.00L 288.00,192.00L 160.00,192.00zM 160.00,160.00L 288.00,160.00L 288.00,128.00L 160.00,128.00zM 160.00,96.00L 288.00,96.00L 288.00,64.00L 160.00,64.00zM 320.00,64.00l 96.00,0.00 L 416.00,224.00 L 320.00,224.00 L 320.00,64.00 z M 352.00,192.00l 32.00,0.00 l0.00-96.00 l-32.00,0.00 L 352.00,192.00 zM 64.00,480.00l0.00-64.00 L 32.00,416.00 L0.00,416.00 l0.00-32.00 l0.00-352.00 c0.00-35.344, 28.656-64.00, 64.00-64.00l 448.00,0.00 L 512.00,480.00 L 64.00,480.00 z M 480.00,0.00L 64.00,0.00 c-17.656,0.00-32.00,14.375-32.00,32.00L 32.00,384.00 
		l 32.00,0.00 l0.00-352.00 l 32.00,0.00 L 96.00,448.00 l 384.00,0.00 L 480.00,0.00 z" />
<glyph unicode="&#xe01c;" d="M 128.00,416.00l0.00-32.00 l0.00-64.00 l0.00-32.00 l0.00-176.375 C 114.594,121.781, 98.094,128.00, 80.00,128.00C 35.813,128.00,0.00,92.187,0.00,48.00
	s 35.813-80.00, 80.00-80.00s 80.00,35.813, 80.00,80.00L 160.00,294.406 l 256.00,51.188L 416.00,175.625 C 402.594,185.781, 386.094,192.00, 368.00,192.00
	c-44.188,0.00-80.00-35.813-80.00-80.00s 35.813-80.00, 80.00-80.00s 80.00,35.813, 80.00,80.00L 448.00,352.00 l0.00,32.00 L 448.00,448.00 L 448.00,480.00 L 128.00,416.00z M 80.00,0.00c-26.469,0.00-48.00,21.531-48.00,48.00
	s 21.531,48.00, 48.00,48.00s 48.00-21.531, 48.00-48.00S 106.469,0.00, 80.00,0.00z M 368.00,64.00c-26.469,0.00-48.00,21.531-48.00,48.00s 21.531,48.00, 48.00,48.00s 48.00-21.531, 48.00-48.00
	S 394.469,64.00, 368.00,64.00z M 416.00,377.594L 160.00,326.406l0.00,64.00 L 416.00,441.594L 416.00,377.594 z" />
<glyph unicode="&#xe01d;" d="M 480.00,448.00l0.00-448.00 L 32.00,0.00 L 32.00,448.00 L 480.00,448.00  M 512.00,480.00L0.00,480.00 l0.00-512.00 l 512.00,0.00 L 512.00,480.00 L 512.00,480.00zM 416.00,384.00l0.00-288.00 L 96.00,96.00 L 96.00,384.00 L 416.00,384.00  M 448.00,416.00L 64.00,416.00 l0.00-352.00 l 384.00,0.00 L 448.00,416.00 L 448.00,416.00zM 192.00,248.437l 35.375-70.75L 247.219,138.00l 31.406,31.375l 36.406,36.375L 388.219,96.00L 115.781,96.00 L 192.00,248.437 M 192.00,320.00
	L 64.00,64.00l 384.00,0.00 L 320.00,256.00L 256.00,192.00L 192.00,320.00L 192.00,320.00zM 352.00,352.00c-17.656,0.00-32.00-14.313-32.00-32.00s 14.344-32.00, 32.00-32.00s 32.00,14.313, 32.00,32.00S 369.656,352.00, 352.00,352.00L 352.00,352.00z" />
<glyph unicode="&#xe01e;" d="M 416.00,448.00L 416.00,480.00 l-32.00,0.00 l0.00-32.00 L 128.00,448.00 L 128.00,480.00 l-32.00,0.00 l0.00-32.00 L0.00,448.00 l0.00-480.00 l 512.00,0.00 L 512.00,448.00 L 416.00,448.00 z M 32.00,256.00l 64.00,0.00 l0.00-64.00 L 32.00,192.00 L 32.00,256.00 z M 224.00,160.00l 64.00,0.00 l0.00-64.00 L 224.00,96.00 L 224.00,160.00 z
	 M 192.00,96.00L 128.00,96.00 L 128.00,160.00 l 64.00,0.00 L 192.00,96.00 z M 320.00,160.00l 64.00,0.00 l0.00-64.00 L 320.00,96.00 L 320.00,160.00 z M 320.00,192.00L 320.00,256.00 l 64.00,0.00 l0.00-64.00 L 320.00,192.00 z M 288.00,192.00L 224.00,192.00 L 224.00,256.00 l 64.00,0.00 L 288.00,192.00 z M 192.00,192.00L 128.00,192.00 L 128.00,256.00 l 64.00,0.00 
	L 192.00,192.00 z M 32.00,160.00l 64.00,0.00 l0.00-64.00 L 32.00,96.00 L 32.00,160.00 z M 32.00,0.00L 32.00,64.00 l 64.00,0.00 l0.00-64.00 L 32.00,0.00 z M 128.00,0.00L 128.00,64.00 l 64.00,0.00 l0.00-64.00 L 128.00,0.00 z M 224.00,0.00L 224.00,64.00 l 64.00,0.00 l0.00-64.00 L 224.00,0.00 z M 320.00,0.00L 320.00,64.00 l 64.00,0.00 l0.00-64.00 
	L 320.00,0.00 z M 480.00,0.00L 416.00,0.00 L 416.00,64.00 l 64.00,0.00 L 480.00,0.00 z M 480.00,96.00L 416.00,96.00 L 416.00,160.00 l 64.00,0.00 L 480.00,96.00 z M 480.00,192.00L 416.00,192.00 L 416.00,256.00 l 64.00,0.00 L 480.00,192.00 z M 480.00,288.00L 416.00,288.00 l-32.00,0.00 L 320.00,288.00 l-32.00,0.00 L 224.00,288.00 l-32.00,0.00 L 128.00,288.00 l-32.00,0.00 L 32.00,288.00 
	L 32.00,416.00 l 64.00,0.00 l0.00-32.00 l 32.00,0.00 l0.00,32.00 l 256.00,0.00 l0.00-32.00 l 32.00,0.00 l0.00,32.00 l 64.00,0.00 L 480.00,288.00 z" />
<glyph unicode="&#xe01f;" d="M 256.00,480.00C 114.625,480.00,0.00,365.375,0.00,224.00s 114.625-256.00, 256.00-256.00s 256.00,114.625, 256.00,256.00S 397.375,480.00, 256.00,480.00z M 256.00,0.00
	C 132.50,0.00, 32.00,100.50, 32.00,224.00S 132.50,448.00, 256.00,448.00s 224.00-100.50, 224.00-224.00S 379.50,0.00, 256.00,0.00zM 96.00,224.00l-32.00,0.00 c0.00-106.063, 85.969-192.00, 192.00-192.00l0.00,32.00 C 167.781,64.00, 96.00,135.781, 96.00,224.00zM 256.00,416.00l0.00-32.00 c 88.219,0.00, 160.00-71.781, 160.00-160.00l 32.00,0.00 C 448.00,330.062, 362.031,416.00, 256.00,416.00zM 160.00,224.00l-32.00,0.00 c0.00-70.688, 57.313-128.00, 128.00-128.00l0.00,32.00 C 203.063,128.00, 160.00,171.062, 160.00,224.00zM 256.00,352.00l0.00-32.00 c 52.938,0.00, 96.00-43.063, 96.00-96.00l 32.00,0.00 C 384.00,294.687, 326.688,352.00, 256.00,352.00zM 256.00,256.00c 17.64,0.00, 32.00-14.375, 32.00-32.00s-14.36-32.00-32.00-32.00s-32.00,14.375-32.00,32.00S 238.359,256.00, 256.00,256.00 M 256.00,288.00
	c-35.344,0.00-64.00-28.656-64.00-64.00s 28.656-64.00, 64.00-64.00s 64.00,28.656, 64.00,64.00S 291.344,288.00, 256.00,288.00L 256.00,288.00z" />
<glyph unicode="&#xe022;" d="M 256.015,320.50l-160.00-160.00L 416.00,160.50 L 256.015,320.50z" />
<glyph unicode="&#xe021;" d="M 352.00,224.50L 192.00,384.50l0.00-320.00 L 352.00,224.50z" />
<glyph unicode="&#xe020;" d="M 160.00,224.50l 160.00-160.00L 320.00,384.50 L 160.00,224.50z" />
<glyph unicode="&#xe024;" d="M 256.015,128.50L 416.00,288.50L 96.016,288.50 L 256.015,128.50z" />
<glyph unicode="&#xe025;" d="M 320.00,224.50L 416.00,224.50L 192.00-31.50L 96.00-31.50 zM 192.00,480.50L 96.00,480.50L 320.00,224.50L 416.00,224.50 z" />
<glyph unicode="&#xe026;" d="M 192.00,224.50L 96.00,224.50L 320.00,480.50L 416.00,480.50 zM 320.00-31.50L 416.00-31.50L 192.00,224.50L 96.00,224.50 z" />
<glyph unicode="&#xe027;" d="M 496.131,44.302L 374.855,147.449c-12.537,11.283-25.945,16.463-36.776,15.963C 366.707,196.946, 384.00,240.451, 384.00,288.00
	C 384.00,394.039, 298.039,480.00, 192.00,480.00C 85.962,480.00,0.00,394.039,0.00,288.00c0.00-106.039, 85.961-192.00, 192.00-192.00c 47.549,0.00, 91.054,17.293, 124.588,45.922
	c-0.50-10.831, 4.68-24.239, 15.963-36.776l 103.147-121.276c 17.661-19.623, 46.511-21.277, 64.11-3.678S 515.754,26.641, 496.131,44.302z
	 M 192.00,160.00c-70.692,0.00-128.00,57.308-128.00,128.00S 121.308,416.00, 192.00,416.00s 128.00-57.308, 128.00-128.00S 262.693,160.00, 192.00,160.00z" />
<glyph unicode="&#xe028;" d="M 480.00,416.00l0.00-256.00 L 384.00,160.00 l0.00-82.75 L 301.25,160.00L 32.00,160.00 L 32.00,416.00 L 480.00,416.00  M 512.00,448.00L0.00,448.00 l0.00-320.00 l 288.00,0.00 l 128.00-128.00l0.00,128.00 L 512.00,128.00 L 512.00,448.00 
	L 512.00,448.00z"  />
<glyph unicode="&#xe003;" d="M 459.633,382.304L 414.383,427.617L 256.002,269.237L 97.649,427.617L 52.336,382.304L 210.717,223.951L 52.336,65.57L 97.649,20.32L 256.002,178.674L 414.383,20.32L 459.633,65.57L 301.28,223.951 		z"  />
<glyph unicode="&#x20;" horiz-adv-x="256" />
<glyph class="hidden" unicode="&#xf000;" d="M0,480L 512 -32L0 -32 z" horiz-adv-x="0" />
</font>
</defs>
</svg>
